<?xml version="1.0" standalone="no"?>
<!DOCTYPE svg PUBLIC "-//W3C//DTD SVG 1.1//EN" "http://www.w3.org/Graphics/SVG/1.1/DTD/svg11.dtd" >
<svg xmlns="http://www.w3.org/2000/svg">
<metadata>Generated by IcoMoon</metadata>
<defs>
<font id="btcd-icn" horiz-adv-x="1024">
<font-face units-per-em="1024" ascent="960" descent="-64" />
<missing-glyph horiz-adv-x="1024" />
<glyph unicode="&#x20;" horiz-adv-x="512" d="" />
<glyph unicode="&#xe900;" glyph-name="toggle_off" d="M298 298.667q52 0 90 38t38 90-38 90-90 38-90-38-38-90 38-90 90-38zM726 640.667q88 0 150-63t62-151-62-151-150-63h-428q-88 0-150 63t-62 151 62 151 150 63h428z" />
<glyph unicode="&#xe901;" glyph-name="visibility_off" d="M506 554.667h6q52 0 90-38t38-90v-8zM322 520.667q-24-48-24-94 0-88 63-151t151-63q46 0 94 24l-66 66q-16-4-28-4-52 0-90 38t-38 90q0 12 4 28zM86 756.667l54 54 756-756-54-54q-10 10-63 62t-81 80q-86-36-186-36-158 0-286 88t-184 232q22 52 69 115t91 97q-24 24-67 68t-49 50zM512 640.667q-40 0-78-16l-92 92q78 30 170 30 158 0 285-88t183-232q-48-118-146-202l-124 124q16 38 16 78 0 88-63 151t-151 63z" />
<glyph unicode="&#xe902;" glyph-name="file_copy" d="M598 426.667h234l-234 234v-234zM640 724.667l256-256v-426q0-34-26-60t-60-26h-470q-34 0-59 26t-25 60v598q0 34 26 59t60 25h298zM682 896.667v-86h-512v-598h-84v598q0 34 25 60t59 26h512z" />
<glyph unicode="&#xe903;" glyph-name="trash-fill" d="M896 832h-128c0 70.752-57.248 128-128 128h-256c-70.752 0-128-57.248-128-128h-256v-128h128v-576c0-105.984 86.016-192 192-192h384c105.984 0 192 86.016 192 192v576h128v128h-128zM384 192c-35.36 0-64 28.64-64 64s28.64 64 64 64 64-28.64 64-64-28.64-64-64-64zM384 448c-35.36 0-64 28.64-64 64s28.64 64 64 64 64-28.64 64-64-28.64-64-64-64zM640 192c-35.36 0-64 28.64-64 64s28.64 64 64 64 64-28.64 64-64-28.64-64-64-64zM640 448c-35.36 0-64 28.64-64 64s28.64 64 64 64 64-28.64 64-64-28.64-64-64-64z" />
<glyph unicode="&#xe904;" glyph-name="file" d="M750.336 597.334h-153.003v153.003zM883.499 584.832l-298.667 298.667c-3.925 3.925-8.619 7.083-13.824 9.259s-10.795 3.243-16.341 3.243h-298.667c-35.328 0-67.413-14.379-90.496-37.504s-37.504-55.168-37.504-90.496v-682.667c0-35.328 14.379-67.413 37.504-90.496s55.168-37.504 90.496-37.504h512c35.328 0 67.413 14.379 90.496 37.504s37.504 55.168 37.504 90.496v469.333c0 11.776-4.779 22.443-12.501 30.165zM512 810.667v-256c0-23.552 19.115-42.667 42.667-42.667h256v-426.667c0-11.776-4.736-22.4-12.501-30.165s-18.389-12.501-30.165-12.501h-512c-11.776 0-22.4 4.736-30.165 12.501s-12.501 18.389-12.501 30.165v682.667c0 11.776 4.736 22.4 12.501 30.165s18.389 12.501 30.165 12.501z" />
<glyph unicode="&#xe905;" glyph-name="edit" d="M469.333 810.667h-298.667c-35.328 0-67.413-14.379-90.496-37.504s-37.504-55.168-37.504-90.496v-597.333c0-35.328 14.379-67.413 37.504-90.496s55.168-37.504 90.496-37.504h597.333c35.328 0 67.413 14.379 90.496 37.504s37.504 55.168 37.504 90.496v298.667c0 23.552-19.115 42.667-42.667 42.667s-42.667-19.115-42.667-42.667v-298.667c0-11.776-4.736-22.4-12.501-30.165s-18.389-12.501-30.165-12.501h-597.333c-11.776 0-22.4 4.736-30.165 12.501s-12.501 18.389-12.501 30.165v597.333c0 11.776 4.736 22.4 12.501 30.165s18.389 12.501 30.165 12.501h298.667c23.552 0 42.667 19.115 42.667 42.667s-19.115 42.667-42.667 42.667zM759.168 862.166l-405.333-405.333c-5.205-5.163-9.259-11.947-11.221-19.84l-42.667-170.667c-1.664-6.4-1.792-13.568 0-20.693 5.717-22.869 28.885-36.779 51.755-31.061l170.667 42.667c7.125 1.749 14.080 5.504 19.84 11.221l405.333 405.333c25.984 25.984 38.997 60.16 38.997 94.165s-13.013 68.181-38.997 94.165-60.203 39.040-94.208 39.040-68.181-13.013-94.165-38.997zM819.499 801.835c9.344 9.344 21.504 13.995 33.835 13.995s24.491-4.651 33.835-13.995 13.995-21.504 13.995-33.835-4.651-24.491-13.995-33.835l-396.971-396.971-90.197-22.571 22.571 90.197z" />
<glyph unicode="&#xe906;" glyph-name="code" d="M292.813 217.6c-12.083 0-24.269 4.25-33.997 12.902l-259.072 230.298 273.459 243.098c21.094 18.688 53.453 16.896 72.243-4.25s16.896-53.504-4.25-72.294l-187.341-166.554 172.954-153.702c21.146-18.79 23.040-51.149 4.25-72.294-10.086-11.418-24.166-17.203-38.246-17.203zM750.797 217.702l273.459 243.098-259.072 230.298c-21.146 18.79-53.504 16.896-72.243-4.25-18.79-21.146-16.896-53.504 4.25-72.294l172.954-153.754-187.341-166.502c-21.146-18.79-23.040-51.149-4.25-72.294 10.086-11.418 24.166-17.203 38.246-17.203 12.083 0 24.269 4.25 33.997 12.902zM511.283 145.152l102.4 614.4c4.659 27.904-14.182 54.272-42.086 58.931-28.006 4.71-54.323-14.182-58.88-42.086l-102.4-614.4c-4.659-27.904 14.182-54.272 42.086-58.931 2.867-0.461 5.632-0.666 8.448-0.666 24.576 0 46.285 17.766 50.432 42.752z" />
<glyph unicode="&#xe907;" glyph-name="trash-2" d="M768 640v-554.667c0-11.776-4.736-22.4-12.501-30.165s-18.389-12.501-30.165-12.501h-426.667c-11.776 0-22.4 4.736-30.165 12.501s-12.501 18.389-12.501 30.165v554.667zM725.333 725.334v42.667c0 35.328-14.379 67.413-37.504 90.496s-55.168 37.504-90.496 37.504h-170.667c-35.328 0-67.413-14.379-90.496-37.504s-37.504-55.168-37.504-90.496v-42.667h-170.667c-23.552 0-42.667-19.115-42.667-42.667s19.115-42.667 42.667-42.667h42.667v-554.667c0-35.328 14.379-67.413 37.504-90.496s55.168-37.504 90.496-37.504h426.667c35.328 0 67.413 14.379 90.496 37.504s37.504 55.168 37.504 90.496v554.667h42.667c23.552 0 42.667 19.115 42.667 42.667s-19.115 42.667-42.667 42.667zM384 725.334v42.667c0 11.776 4.736 22.4 12.501 30.165s18.389 12.501 30.165 12.501h170.667c11.776 0 22.4-4.736 30.165-12.501s12.501-18.389 12.501-30.165v-42.667zM384 469.334v-256c0-23.552 19.115-42.667 42.667-42.667s42.667 19.115 42.667 42.667v256c0 23.552-19.115 42.667-42.667 42.667s-42.667-19.115-42.667-42.667zM554.667 469.334v-256c0-23.552 19.115-42.667 42.667-42.667s42.667 19.115 42.667 42.667v256c0 23.552-19.115 42.667-42.667 42.667s-42.667-19.115-42.667-42.667z" />
<glyph unicode="&#xe908;" glyph-name="sort" horiz-adv-x="585" d="M585.143 329.143c0-9.714-4-18.857-10.857-25.714l-256-256c-6.857-6.857-16-10.857-25.714-10.857s-18.857 4-25.714 10.857l-256 256c-6.857 6.857-10.857 16-10.857 25.714 0 20 16.571 36.571 36.571 36.571h512c20 0 36.571-16.571 36.571-36.571zM585.143 548.571c0-20-16.571-36.571-36.571-36.571h-512c-20 0-36.571 16.571-36.571 36.571 0 9.714 4 18.857 10.857 25.714l256 256c6.857 6.857 16 10.857 25.714 10.857s18.857-4 25.714-10.857l256-256c6.857-6.857 10.857-16 10.857-25.714z" />
<glyph unicode="&#xe909;" glyph-name="search" d="M406 340.667q80 0 136 56t56 136-56 136-136 56-136-56-56-136 56-136 136-56zM662 340.667l212-212-64-64-212 212v34l-12 12q-76-66-180-66-116 0-197 80t-81 196 81 197 197 81 196-81 80-197q0-42-20-95t-46-85l12-12h34z" />
<glyph unicode="&#xe90a;" glyph-name="arrow_back" d="M854 468.667v-84h-520l238-240-60-60-342 342 342 342 60-60-238-240h520z" />
<glyph unicode="&#xe90b;" glyph-name="remove_red_eye, visibility" d="M512 554.667q52 0 90-38t38-90-38-90-90-38-90 38-38 90 38 90 90 38zM512 212.667q88 0 151 63t63 151-63 151-151 63-151-63-63-151 63-151 151-63zM512 746.667q158 0 286-88t184-232q-56-144-184-232t-286-88-286 88-184 232q56 144 184 232t286 88z" />
<glyph unicode="&#xe90c;" glyph-name="document-edit" d="M846.183 571.189l-83.19 83.19-361.347-361.398 83.378-83.378 361.159 361.586zM868.797 593.83l55.334 55.399c12.479 12.494 12.387 32.803-0.153 45.309l-37.754 37.65c-12.564 12.529-32.807 12.627-45.33 0.102l-55.274-55.282 83.178-83.178zM380.919 268.454l-20.465-99.606 100.317 19.755-79.851 79.851zM704 384v-320.082c0-35.408-28.617-63.918-63.918-63.918h-480.165c-35.408 0-63.918 28.759-63.918 64.235v735.531c0 35.488 28.776 64.235 64.273 64.235h319.727v-192.061c0-35.565 28.739-63.939 64.189-63.939h127.811l146.563 146.563c25.366 25.366 65.641 25.232 90.565 0.309l37.744-37.744c24.846-24.846 24.785-65.471-0.309-90.565l-242.563-242.563zM512 864v-191.906c0-17.725 14.431-32.094 31.705-32.094h160.295l-192 224z" />
<glyph unicode="&#xe90d;" glyph-name="envelope-open-o" d="M842.286 429.143l22.286-29.143c6.286-8 4.571-18.857-2.857-25.143-57.143-44.571-188.571-145.714-194.286-150.286-40.571-33.143-95.429-78.857-154.857-78.286h-1.143c-59.429 0-114.286 45.143-154.857 78.286-6.286 5.143-133.143 102.857-189.143 146.286-8 6.286-9.714 17.143-3.429 25.143l21.143 29.714c6.286 8.571 18.286 10.286 26.286 3.429 38.857-30.286 93.714-72.571 174.857-134.857 28.571-21.714 85.143-74.857 125.143-74.857h1.143c40 0 96.571 53.143 125.143 74.857 84 64.571 140 107.429 178.857 138.286 8 6.286 19.429 4.571 25.714-3.429zM950.857 18.286v530.286c-57.143 53.143-48.571 48.571-313.143 253.143-28.571 22.286-85.143 76-125.143 76h-1.143c-40 0-96.571-53.714-125.143-76-264.571-204.571-256-200-313.143-253.143v-530.286c0-9.714 8.571-18.286 18.286-18.286h841.143c9.714 0 18.286 8.571 18.286 18.286zM1024 548.571v-530.286c0-50.286-41.143-91.429-91.429-91.429h-841.143c-50.286 0-91.429 41.143-91.429 91.429v530.286c0 20.571 8.571 40 23.429 53.714 117.143 108.571 252 202.857 333.143 269.714 40 33.143 95.429 78.857 154.857 78.857h1.143c59.429 0 114.857-45.714 154.857-78.857 75.429-62.286 218.857-163.429 333.143-269.714 14.857-13.714 23.429-33.143 23.429-53.714z" />
<glyph unicode="&#xe90e;" glyph-name="flow-tree" d="M921.6 213.811v118.989c0 98.97-80.23 179.2-179.2 179.2h-102.4c-42.394 0-76.8 34.406-76.8 76.8v118.989c42.24 19.456 71.68 61.85 71.68 111.411 0 67.891-54.989 122.88-122.88 122.88s-122.88-54.989-122.88-122.88c0-49.51 29.491-91.955 71.68-111.411v-118.989c0-42.394-34.406-76.8-76.8-76.8h-102.4c-98.97 0-179.2-80.23-179.2-179.2v-118.989c-42.24-19.456-71.68-61.901-71.68-111.411 0-67.891 54.989-122.88 122.88-122.88s122.88 55.040 122.88 122.88c0 49.51-29.491 91.955-71.68 111.411v118.989c0 42.394 34.406 76.8 76.8 76.8h102.4c27.597 0 53.453 6.758 76.8 17.92v-213.709c-42.24-19.456-71.68-61.901-71.68-111.411 0-67.891 54.989-122.88 122.88-122.88s122.88 55.040 122.88 122.88c0 49.51-29.491 91.955-71.68 111.411v213.709c23.347-11.162 49.203-17.92 76.8-17.92h102.4c42.394 0 76.8-34.406 76.8-76.8v-118.989c-42.24-19.456-71.68-61.85-71.68-111.411 0-67.891 54.989-122.88 122.88-122.88s122.88 55.040 122.88 122.88c0 49.51-29.44 91.955-71.68 111.411zM512 890.112c39.117 0 70.861-31.693 70.861-70.912 0-39.117-31.744-70.912-70.861-70.912-39.168 0-70.861 31.795-70.861 70.912 0 39.219 31.693 70.912 70.861 70.912zM153.6 31.488c-39.219 0-70.912 31.795-70.912 70.912 0 39.219 31.693 70.912 70.912 70.912 39.117 0 70.861-31.693 70.861-70.912 0-39.117-31.744-70.912-70.861-70.912zM512 31.488c-39.219 0-70.912 31.795-70.912 70.912 0 39.219 31.693 70.912 70.912 70.912 39.117 0 70.861-31.693 70.861-70.912 0-39.117-31.744-70.912-70.861-70.912zM870.4 31.488c-39.219 0-70.912 31.795-70.912 70.912 0 39.219 31.693 70.912 70.912 70.912 39.117 0 70.861-31.693 70.861-70.912 0-39.117-31.744-70.912-70.861-70.912z" />
<glyph unicode="&#xe90f;" glyph-name="keyboard_arrow_down" d="M316 572.667l196-196 196 196 60-60-256-256-256 256z" />
<glyph unicode="&#xe910;" glyph-name="keyboard_arrow_up" d="M316 280.667l-60 60 256 256 256-256-60-60-196 196z" />
<glyph unicode="&#xe911;" glyph-name="external-link" d="M725.333 384v-256c0-11.776-4.736-22.4-12.501-30.165s-18.389-12.501-30.165-12.501h-469.333c-11.776 0-22.4 4.736-30.165 12.501s-12.501 18.389-12.501 30.165v469.333c0 11.776 4.736 22.4 12.501 30.165s18.389 12.501 30.165 12.501h256c23.552 0 42.667 19.115 42.667 42.667s-19.115 42.667-42.667 42.667h-256c-35.328 0-67.413-14.379-90.496-37.504s-37.504-55.168-37.504-90.496v-469.333c0-35.328 14.379-67.413 37.504-90.496s55.168-37.504 90.496-37.504h469.333c35.328 0 67.413 14.379 90.496 37.504s37.504 55.168 37.504 90.496v256c0 23.552-19.115 42.667-42.667 42.667s-42.667-19.115-42.667-42.667zM456.832 311.168l396.501 396.501v-153.003c0-23.552 19.115-42.667 42.667-42.667s42.667 19.115 42.667 42.667v256c0 5.803-1.152 11.307-3.243 16.341s-5.163 9.728-9.216 13.781c-0.043 0.043-0.043 0.043-0.085 0.085-3.925 3.925-8.619 7.083-13.781 9.216-5.035 2.091-10.539 3.243-16.341 3.243h-256c-23.552 0-42.667-19.115-42.667-42.667s19.115-42.667 42.667-42.667h153.003l-396.501-396.501c-16.683-16.683-16.683-43.691 0-60.331s43.691-16.683 60.331 0z" />
<glyph unicode="&#xe912;" glyph-name="chevron-left" d="M670.165 200.832l-225.835 225.835 225.835 225.835c16.683 16.683 16.683 43.691 0 60.331s-43.691 16.683-60.331 0l-256-256c-16.683-16.683-16.683-43.691 0-60.331l256-256c16.683-16.683 43.691-16.683 60.331 0s16.683 43.691 0 60.331z" />
<glyph unicode="&#xe913;" glyph-name="chevron-right" d="M414.165 140.502l256 256c16.683 16.683 16.683 43.691 0 60.331l-256 256c-16.683 16.683-43.691 16.683-60.331 0s-16.683-43.691 0-60.331l225.835-225.835-225.835-225.835c-16.683-16.683-16.683-43.691 0-60.331s43.691-16.683 60.331 0z" />
<glyph unicode="&#xe914;" glyph-name="check" d="M783.193 899.608h-547.721c-99.78 0-180.986-81.206-180.986-180.986v-547.721c0-99.78 81.206-180.986 180.986-180.986h547.721c99.78 0 180.986 81.206 180.986 180.986v547.721c0 99.78-81.206 180.986-180.986 180.986zM887.975 170.901c0-57.773-47.009-104.781-104.781-104.781h-547.721c-57.773 0-104.781 47.009-104.781 104.781v547.721c0 57.773 47.009 104.781 104.781 104.781h547.721c57.773 0 104.781-47.009 104.781-104.781v-547.721zM795.053 687.092v0c-14.527 10.812-35.102 7.763-45.913-6.811l-289.911-390.596c-5.953-8.049-14.003-9.811-18.289-10.145s-12.526 0.095-19.67 7.097l-176.7 171.937c-13.002 12.621-33.768 12.336-46.39-0.619-12.621-13.002-12.336-33.768 0.619-46.39l176.7-171.937c17.051-16.575 39.817-25.767 63.393-25.767 2.429 0 4.858 0.095 7.287 0.286 26.148 2.096 50.105 15.384 65.727 36.435l289.911 390.596c10.859 14.574 7.811 35.149-6.763 45.913z" />
<glyph unicode="&#xe915;" glyph-name="color" d="M909.693 565.784l-269.717 269.622c-32.752 32.752-77.998 53.009-127.976 53.009s-95.224-20.257-127.976-53.009l-269.717-269.622c-32.752-32.752-53.009-77.998-53.009-127.976s20.257-95.224 53.009-127.976l269.622-269.622c32.752-32.752 77.998-53.009 127.976-53.009s95.224 20.257 127.976 53.009l269.812 269.622c32.752 32.752 53.009 77.998 53.009 127.976s-20.257 95.224-53.009 127.976v0zM855.826 363.746l-269.622-269.669c-18.963-18.972-45.166-30.707-74.109-30.707s-55.146 11.735-74.109 30.707l-269.717 269.67c-18.958 18.961-30.683 45.154-30.683 74.085s11.726 55.124 30.684 74.085l269.621 269.621c18.963 18.972 45.166 30.707 74.109 30.707s55.146-11.735 74.109-30.707l269.622-269.622c18.958-18.961 30.683-45.154 30.683-74.085s-11.726-55.124-30.684-74.085v0zM528.336 639.083c-5.001 7.239-10.335 14.288-16.146 22.242-2.429-3.001-4.048-4.763-5.477-6.811-38.626-54.058-74.585-109.544-103.543-169.746-12.336-25.529-24.624-51.438-27.196-80.205-3.62-40.674 5.763-77.776 35.769-107.115 39.912-39.055 87.921-49.533 140.979-35.292 58.963 15.86 96.542 66.679 96.018 127.786-0.643 26.985-7.093 52.315-18.142 74.991l0.472-1.073c-28.196 61.964-63.964 119.451-102.733 175.223z" />
<glyph unicode="&#xe916;" glyph-name="date" d="M795.386 883.795v4.763c0 21.043-17.059 38.102-38.102 38.102s-38.102-17.059-38.102-38.102v0-4.763h-409.6v4.763c0 21.043-17.059 38.102-38.102 38.102s-38.102-17.059-38.102-38.102v0-4.763c-95.256-4.763-171.46-85.73-171.46-180.986v-547.721c0-100.019 80.967-180.986 180.986-180.986h547.721c100.019 0 180.986 80.967 180.986 180.986v547.721c0 95.256-76.205 176.223-176.223 180.986zM233.377 807.591v-23.814c0-21.043 17.059-38.102 38.102-38.102s38.102 17.059 38.102 38.102v0 23.814h409.6v-23.814c0-21.043 17.059-38.102 38.102-38.102s38.102 17.059 38.102 38.102v0 23.814c57.153-4.763 100.019-47.628 100.019-104.781v-85.73h-757.284v85.73c0 57.153 42.865 100.019 95.256 104.781zM790.623 50.307h-547.721c-57.153 0-104.781 47.628-104.781 104.781v385.786h757.284v-385.786c0-57.153-47.628-104.781-104.781-104.781zM385.786 459.907c-31.565 0-57.153-25.588-57.153-57.153s25.588-57.153 57.153-57.153v0c31.565 0 57.153 25.588 57.153 57.153s-25.588 57.153-57.153 57.153v0zM647.74 459.907c-31.565 0-57.153-25.588-57.153-57.153s25.588-57.153 57.153-57.153v0c31.565 0 57.153 25.588 57.153 57.153s-25.588 57.153-57.153 57.153v0zM385.786 236.056c-33.34 0-57.153-28.577-57.153-61.916 0-28.577 23.814-57.153 57.153-57.153s57.153 28.577 57.153 57.153c0 33.34-23.814 61.916-57.153 61.916zM647.74 236.056c-33.34 0-57.153-28.577-57.153-61.916 0-28.577 23.814-57.153 57.153-57.153s57.153 28.577 57.153 57.153c0 33.34-23.814 61.916-57.153 61.916z" />
<glyph unicode="&#xe917;" glyph-name="datetime-local" d="M789.433 887.701v6.192c0 21.043-17.059 38.102-38.102 38.102s-38.102-17.059-38.102-38.102v0-6.001h-410.076v6.001c0 21.043-17.059 38.102-38.102 38.102s-38.102-17.059-38.102-38.102v0-6.192c-96.728-4.072-173.604-83.476-173.604-180.835 0-0.053 0-0.106 0-0.159v0.008-547.721c0-99.956 81.030-180.986 180.986-180.986v0h547.721c99.956 0 180.986 81.030 180.986 180.986v0 547.721c0 0.045 0 0.098 0 0.151 0 97.36-76.875 176.764-173.237 180.823l-0.367 0.012zM886.832 158.994c0-57.869-46.912-104.781-104.781-104.781v0h-547.721c-57.869 0-104.781 46.912-104.781 104.781v0 547.721c0 0.049 0 0.107 0 0.165 0 55.271 42.795 100.548 97.058 104.501l0.341 0.020v-21.29c0-21.043 17.059-38.102 38.102-38.102s38.102 17.059 38.102 38.102v0 21.575h410.076v-21.575c0-21.043 17.059-38.102 38.102-38.102s38.102 17.059 38.102 38.102v0 21.29c54.595-3.973 97.385-49.235 97.399-104.494v-0.001zM518.573 711.239c-159.877 0-289.482-129.606-289.482-289.482s129.606-289.482 289.482-289.482c159.877 0 289.482 129.606 289.482 289.482 0 0.017 0 0.033 0 0.050v-0.002c-0.244 159.769-129.71 289.218-289.462 289.435h-0.021zM518.573 189.428c-128.312 0-232.329 104.017-232.329 232.329s104.017 232.329 232.329 232.329c128.295 0 232.302-103.99 232.329-232.279v-0.002c-0.135-128.267-104.066-232.214-232.313-232.377h-0.016zM538.195 427.139c-1.606 1.559-2.607 3.733-2.62 6.142v142.886c0.015 0.342 0.024 0.743 0.024 1.146 0 15.23-12.346 27.577-27.577 27.577s-27.577-12.346-27.577-27.577c0-0.403 0.009-0.804 0.026-1.203l-0.002 0.057v-158.077c0.013-7.791 3.239-14.826 8.423-19.854l0.007-0.007 117.165-112.592c4.916-4.773 11.632-7.716 19.035-7.716 0.006 0 0.011 0 0.017 0h0.571c15.077 0.2 27.222 12.469 27.222 27.574 0 7.895-3.317 15.014-8.634 20.041l-0.013 0.012z" />
<glyph unicode="&#xe918;" glyph-name="radio" d="M523.907 898.084h-19.051c-242.902 0-442.94-195.274-442.94-442.94v-19.051c0-242.902 200.037-442.94 442.94-442.94h19.051c242.902 0 442.94 200.037 442.94 442.94v19.051c0 247.665-200.037 442.94-442.94 442.94zM890.642 436.093c0-200.037-166.698-366.735-366.735-366.735h-19.051c-204.8 0-366.735 166.698-366.735 366.735v19.051c0 204.8 161.935 366.735 366.735 366.735h19.051c200.037 0 366.735-161.935 366.735-366.735v-19.051zM519.144 617.079h-9.526c-90.493 0-166.698-76.205-166.698-166.698v-4.763c0-90.493 76.205-166.698 166.698-166.698h9.526c90.493 0 161.935 76.205 161.935 166.698v4.763c0 90.493-71.442 166.698-161.935 166.698z" />
<glyph unicode="&#xe919;" glyph-name="email" d="M823.391 815.164h-619.163c-99.956 0-180.986-81.030-180.986-180.986v0-376.26c0-99.956 81.030-180.986 180.986-180.986v0h619.163c99.956 0 180.986 81.030 180.986 180.986v0 376.26c0 99.956-81.030 180.986-180.986 180.986v0zM823.391 738.959c6.501-0.007 12.861-0.596 19.034-1.717l-0.65 0.098-298.579-370.736c-6.817-8.961-17.487-14.687-29.495-14.687-1.911 0-3.789 0.145-5.622 0.425l0.205-0.026c-10.126 1.874-18.718 7.383-24.552 15.094l-0.072 0.099-297.913 369.831c5.538 1.023 11.914 1.612 18.426 1.619h0.006zM99.447 634.177c0 0.027 0 0.058 0 0.089 0 28.722 11.609 54.732 30.39 73.594l-0.004-0.004c1.407-3.238 3.114-6.030 5.15-8.546l-0.054 0.069 188.321-233.805-187.892-258.096c-4.029-5.679-6.949-12.435-8.288-19.743l-0.047-0.308c-17.094 18.519-27.577 43.363-27.577 70.656 0 0.042 0 0.084 0 0.125v-0.006zM204.228 153.136c-8.331 0.011-16.429 0.983-24.198 2.809l0.717-0.142 185.987 255.762 80.967-100.352c17.908-22.242 41.436-34.483 66.25-34.483s48.295 12.24 66.203 34.483l80.967 100.352 185.987-255.667c-7.037-1.684-15.119-2.656-23.425-2.667h-0.008zM928.173 257.917c-0.018-27.328-10.495-52.206-27.644-70.85l0.068 0.075c-1.386 7.617-4.306 14.372-8.44 20.208l0.105-0.156-187.892 258.286 188.321 233.805c1.941 2.455 3.645 5.243 4.994 8.226l0.102 0.252c18.778-18.859 30.387-44.869 30.387-73.591 0-0.031 0-0.063 0-0.094v0.005z" />
<glyph unicode="&#xe91a;" glyph-name="file-up" d="M976.372 509.249c-24.243 80.158-77.491 133.358-158.315 158.744-4.23 1.222-7.494 4.486-8.694 8.627l-0.022 0.089c-40.277 112.933-141.336 194.489-262.782 205.756l-1.22 0.091-12.574 1.238-5.62 0.619h-27.053l-4.763-0.619-11.621-1.238c-61.19-5.44-116.383-27.381-162.18-61.29l0.865 0.612c-49.325-35.97-86.851-85.436-107.411-142.967l-0.657-2.108c-1.448-4.464-4.986-7.876-9.428-9.121l-0.097-0.023c-65.965-22.957-114.593-64.441-144.455-123.261-12.857-24.928-21.303-54.108-23.488-85.017l-0.040-0.713c-0.117-1.374-0.353-2.639-0.701-3.856l0.035 0.141v-29.625c0.3-0.638 0.518-1.377 0.615-2.155l0.004-0.036c0.429-3.096 0.714-6.192 1.048-9.526 0.667-6.144 1.334-12.479 2.524-18.48 11.447-59.566 43.258-110.26 87.76-145.694l0.495-0.38c40.433-33.113 92.663-53.181 149.58-53.181 1.296 0 2.59 0.010 3.881 0.031l-0.195-0.002c0.353-0.011 0.769-0.018 1.186-0.018 16.897 0 31.3 10.679 36.829 25.656l0.088 0.272c6.525 18.289 2.048 38.96-10.907 50.247-7.763 6.763-17.622 9.859-32.054 10.097-35.682 0.259-68.361 12.903-94.002 33.84l0.271-0.214c-47.628 38.531-67.822 88.016-59.201 147.075 10.513 64.708 59.413 115.581 122.188 128.89l1.025 0.182c18.293 3.215 32.72 16.796 37.129 34.353l0.068 0.32c13.724 48.774 41.724 89.77 79.152 119.369l0.482 0.368c39.759 32.19 90.951 51.678 146.694 51.678 0.335 0 0.669-0.001 1.003-0.002h-0.051c11.879-0.007 23.566-0.803 35.018-2.338l-1.345 0.147c48.2-6.148 90.719-26.77 123.997-57.303l-0.165 0.149c33.624-30.236 58.158-69.969 69.394-114.967l0.334-1.579c4.175-18.179 18.799-32.034 37.077-35.019l0.263-0.035c79.872-17.194 134.215-92.684 123.833-171.889-10.638-77.449-75.814-136.641-155.049-137.834l-0.123-0.001c-0.535 0.022-1.164 0.035-1.795 0.035-10.31 0-19.822-3.412-27.47-9.169l0.117 0.084c-13.669-10.859-19.051-31.482-12.621-50.105 5.227-15.799 19.862-26.997 37.112-26.997 0.616 0 1.229 0.014 1.839 0.043l-0.086-0.003c0.004 0 0.010 0 0.015 0 16.034 0 31.732 1.438 46.972 4.193l-1.598-0.24c62.007 11.288 114.584 45.167 149.958 92.623l0.451 0.633c49.628 66.441 62.535 140.645 38.483 220.803zM731.66 352.601c15.484 6.528 26.155 21.58 26.155 39.125 0 12.696-5.587 24.086-14.437 31.847l-0.048 0.042-31.006 30.958-165.888 165.936c-7.767 8.302-18.445 13.795-30.398 14.847l-0.179 0.013c-12.24 0.905-22.909-3.667-33.673-14.288q-49.438-49.771-99.066-99.257l-99.257-99.161c-8.365-7.49-13.605-18.323-13.605-30.38 0-1.917 0.132-3.803 0.389-5.65l-0.024 0.214c2.034-17.133 13.995-31.013 29.895-35.833l0.301-0.078c16.146-5.43 30.958-1.286 44.056 12.336q33.34 34.721 66.679 69.584l34.673 36.15c2.429 2.524 4.763 4.763 7.668 7.716l12.383 12.383v-410.743c0-26.767 12.907-41.817 38.102-44.77 15.527-1.81 36.388 3.477 44.056 24.29 2.157 6.311 3.402 13.581 3.402 21.143 0 0.588-0.008 1.173-0.022 1.758l0.002-0.086q0.286 160.697 0 321.345v91.207l9.954-9.192 2.62-2.477 24.528-24.528q22.004-22.099 44.103-44.103c5.049-4.763 10.049-10.049 15.003-15.050 12.717-12.86 25.862-26.1 39.293-38.579 6.793-6.888 16.228-11.155 26.66-11.155 6.475 0 12.566 1.644 17.878 4.537l-0.196-0.098z" />
<glyph unicode="&#xe91b;" glyph-name="month" d="M789.433 899.417v6.144c0 21.043-17.059 38.102-38.102 38.102s-38.102-17.059-38.102-38.102v0-5.953h-410.076v5.953c0 21.043-17.059 38.102-38.102 38.102s-38.102-17.059-38.102-38.102v0-6.144c-96.728-4.072-173.604-83.476-173.604-180.835 0-0.053 0-0.106 0-0.159v0.008-547.721c0-99.956 81.030-180.986 180.986-180.986v0h547.721c99.956 0 180.986 81.030 180.986 180.986v0 547.721c0 0.045 0 0.098 0 0.151 0 97.36-76.875 176.764-173.237 180.823l-0.367 0.012zM226.947 823.213v-21.337c0-21.043 17.059-38.102 38.102-38.102s38.102 17.059 38.102 38.102v0 21.528h410.076v-21.623c0-21.043 17.059-38.102 38.102-38.102s38.102 17.059 38.102 38.102v0 21.337c54.595-3.973 97.385-49.235 97.399-104.494v-87.255h-757.284v87.254c0.014 55.261 42.804 100.523 97.058 104.476l0.341 0.020zM782.050 66.119h-547.721c-57.869 0-104.781 46.912-104.781 104.781v0 384.262h757.284v-384.452c-0.108-57.787-46.979-104.591-104.781-104.591 0 0 0 0 0 0v0zM427.889 443.666h-55.058q-19.385-30.291-73.49-42.055v-57.153q20.051 2.762 55.82 18.623v-120.737h-62.678v-56.582h195.274v56.63h-59.868zM728.707 315.88c8.868 13.117 14.192 29.265 14.288 46.651v0.025c0.033 0.828 0.053 1.8 0.053 2.776 0 22.505-10.135 42.642-26.090 56.097l-0.11 0.090q-26.148 22.147-67.441 22.147c-0.728 0.018-1.585 0.029-2.445 0.029-24.201 0-46.478-8.238-64.179-22.064l0.231 0.174q-28.005-21.861-35.054-66.679l64.202-12.479q3.382 43.961 31.339 43.913c0.266 0.011 0.578 0.017 0.891 0.017 6.761 0 12.864-2.818 17.199-7.343l0.008-0.009c4.306-4.791 6.939-11.161 6.939-18.146 0-0.469-0.012-0.936-0.035-1.399l0.003 0.065c-0.076-9.077-3.029-17.45-7.99-24.267l0.083 0.12q-7.906-11.574-33.911-33.054t-35.483-28.005l-43.246-30.291v-58.439h193.512l2.762 62.345h-98.971q69.156 45.58 83.444 67.727z" />
<glyph unicode="&#xe91c;" glyph-name="number" d="M836.203 742.864h-438.701v117.593h53.105c34.578 0 62.631 21.337 62.631 47.628s-28.053 47.628-62.631 47.628h-201.514c-34.768 0-62.583-21.337-62.583-47.628s28.005-47.628 62.583-47.628h53.153v-117.593h-114.307c-99.956 0-180.986-81.030-180.986-180.986v0-227.423c0-99.956 81.030-180.986 180.986-180.986v0h114.307v-117.927h-53.153c-34.578 0-62.583-21.337-62.583-47.628s28.005-47.628 62.583-47.628h201.514c34.578 0 62.631 21.337 62.631 47.628s-28.053 47.628-62.631 47.628h-53.105v117.927h438.701c99.956 0 180.986 81.030 180.986 180.986v0 227.423c0 99.956-81.030 180.986-180.986 180.986v0zM940.985 334.455c0-57.869-46.912-104.781-104.781-104.781v0h-648.359c-57.869 0-104.781 46.912-104.781 104.781v0 227.423c0 57.869 46.912 104.781 104.781 104.781v0h648.359c57.869 0 104.781-46.912 104.781-104.781v0zM188.702 553.401h36.864v-243.379h55.058v278.909l-93.017-8.001 1.095-27.529zM505.475 411.612l18.432 14.955q35.483 28.577 46.723 48.057c7.064 11.824 11.24 26.080 11.24 41.312 0 0.027 0 0.054 0 0.081v-0.004c0.022 0.645 0.035 1.403 0.035 2.165 0 21.755-10.418 41.077-26.538 53.248l-0.169 0.122q-26.624 20.766-69.965 20.766c-29.21-0.36-56.986-6.062-82.539-16.17l1.571 0.548v-40.579q40.007 20.528 70.108 20.48c0.946 0.059 2.052 0.093 3.165 0.093 12.368 0 23.766-4.154 32.875-11.142l-0.129 0.095c8.234-7.288 13.399-17.882 13.399-29.683 0-0.784-0.023-1.562-0.068-2.334l0.005 0.107c-0.273-16.668-6.172-31.908-15.873-43.956l0.108 0.139c-12.17-15.691-25.276-29.552-39.608-42.042l-0.351-0.3-22.48-20.051c-17.82-16.145-33.705-33.813-47.659-52.977l-0.684-0.985v-43.532h183.987v43.532h-121.642c3.732 12.847 10.322 23.873 19.063 32.78l-0.012-0.012c8.381 8.978 17.196 17.249 26.529 24.912l0.476 0.379zM801.292 440.856c-11.539 8.14-25.224 14.098-40.017 16.945l-0.658 0.105q30.529 10.002 45.675 27.196c9.441 10.646 15.207 24.739 15.207 40.178 0 0.459-0.005 0.917-0.015 1.374l0.001-0.068c0.010 0.407 0.016 0.886 0.016 1.366 0 18.953-9.226 35.752-23.431 46.15l-0.161 0.112q-23.481 17.813-66.679 17.813c-8.049 0-16.622-0.429-25.671-1.286s-16.956-1.953-23.814-3.286c-10.793-2.334-19.972-5.057-28.862-8.373l1.429 0.467v-37.578c18.842 9.342 40.957 15.045 64.343 15.618l0.193 0.004c15.908 0 27.577-3.477 35.102-10.383 6.935-6.447 11.261-15.621 11.261-25.805 0-0.422-0.007-0.842-0.022-1.261l0.002 0.061c-0.102-19.491-12.087-36.157-29.074-43.133l-0.312-0.113q-13.812-5.62-45.389-5.668h-14.288v-32.911h16.908q33.34 0 48.485-7.001c9.7-4.194 17.642-10.911 23.216-19.333l0.121-0.195c5.020-7.771 8.004-17.267 8.004-27.46 0-0.192-0.001-0.383-0.003-0.574v0.029c0.019-0.475 0.031-1.032 0.031-1.592 0-12.942-5.92-24.501-15.199-32.118l-0.073-0.058c-9.993-7.871-22.762-12.625-36.642-12.625-0.865 0-1.726 0.018-2.583 0.055l0.122-0.004q-26.957 0-67.87 15.812v-41.055c12.868-3.765 28.019-6.628 43.591-8.028l0.941-0.068q16.289-0.762 30.815-0.81 55.105 0 79.729 24.433c15.040 13.913 24.47 33.703 24.623 55.697v0.028c0.001 0.122 0.001 0.265 0.001 0.409 0 11.418-2.746 22.194-7.614 31.704l0.183-0.393c-5.355 10.262-12.638 18.823-21.436 25.488l-0.187 0.136z" />
<glyph unicode="&#xe91d;" glyph-name="password" d="M836.203 742.864h-438.701v117.593h53.105c34.578 0 62.631 21.337 62.631 47.628s-28.053 47.628-62.631 47.628h-201.514c-34.768 0-62.583-21.337-62.583-47.628s28.005-47.628 62.583-47.628h53.153v-117.593h-114.307c-99.956 0-180.986-81.030-180.986-180.986v0-227.423c0-99.956 81.030-180.986 180.986-180.986v0h114.307v-117.927h-53.153c-34.578 0-62.583-21.337-62.583-47.628s28.005-47.628 62.583-47.628h201.514c34.578 0 62.631 21.337 62.631 47.628s-28.053 47.628-62.631 47.628h-53.105v117.927h438.701c99.956 0 180.986 81.030 180.986 180.986v0 227.423c0 99.956-81.030 180.986-180.986 180.986v0zM940.985 334.455c0-57.869-46.912-104.781-104.781-104.781v0h-648.359c-57.869 0-104.781 46.912-104.781 104.781v0 227.423c0 57.869 46.912 104.781 104.781 104.781v0h648.359c57.869 0 104.781-46.912 104.781-104.781v0zM350.732 481.959c-1.373 7.105-4.1 13.4-7.917 18.878l0.106-0.16c-3.318 6.392-7.575 11.819-12.659 16.334l-0.058 0.050c-1.192 1.1-2.792 1.775-4.548 1.775s-3.356-0.675-4.553-1.779l0.005 0.004-51.105-40.817 10.288 64.393c0.13 0.498 0.205 1.070 0.205 1.659 0 2.965-1.895 5.487-4.539 6.423l-0.048 0.015c-5.087 1.945-10.972 3.071-17.119 3.071-1.2 0-2.389-0.043-3.567-0.127l0.158 0.009c-1.014 0.074-2.196 0.116-3.388 0.116-6.154 0-12.046-1.126-17.479-3.182l0.34 0.113c-2.672-0.944-4.553-3.448-4.553-6.392 0-0.606 0.080-1.193 0.229-1.752l-0.011 0.047 10.24-64.393-51.057 40.817c-1.2 1.081-2.797 1.741-4.548 1.741s-3.348-0.661-4.555-1.747l0.006 0.005c-5.261-4.391-9.54-9.765-12.588-15.862l-0.129-0.284c-3.705-5.42-6.405-11.833-7.67-18.748l-0.046-0.303c-0.055-0.337-0.087-0.725-0.087-1.12 0-3.142 2.002-5.817 4.799-6.818l0.051-0.016 61.107-23.814-61.249-23.528c-2.849-1-4.856-3.666-4.856-6.802 0-0.407 0.034-0.806 0.099-1.194l-0.006 0.042c1.297-7.103 3.999-13.407 7.818-18.872l-0.102 0.154c3.309-6.375 7.655-11.755 12.874-16.127l0.081-0.066c1.197-1.046 2.775-1.683 4.501-1.683s3.303 0.638 4.509 1.69l-0.008-0.007 51.057 40.769-10.24-64.155c-0.154-0.537-0.242-1.155-0.242-1.792 0-2.952 1.891-5.462 4.529-6.385l0.047-0.014c5.088-1.884 10.965-2.974 17.097-2.974 1.207 0 2.405 0.042 3.591 0.125l-0.16-0.009c1.034-0.076 2.241-0.119 3.458-0.119 6.123 0 11.99 1.091 17.42 3.089l-0.35-0.113c2.704 0.943 4.61 3.472 4.61 6.445 0 0.621-0.083 1.223-0.239 1.794l0.011-0.048-10.288 64.393 51.105-41.008c1.247-1.028 2.861-1.652 4.62-1.652s3.373 0.624 4.632 1.662l-0.012-0.010c5.198 4.406 9.428 9.777 12.444 15.857l0.129 0.288c3.711 5.424 6.439 11.83 7.761 18.735l0.050 0.316c0.075 0.385 0.118 0.828 0.118 1.281 0 3.109-2.027 5.745-4.832 6.659l-0.050 0.014-60.821 23.814 60.821 23.814c2.818 0.966 4.808 3.592 4.808 6.683 0 0.28-0.016 0.556-0.048 0.827l0.003-0.033zM612.495 481.959c-1.322 7.092-3.985 13.389-7.73 18.889l0.11-0.171c-3.357 6.408-7.678 11.839-12.84 16.327l-0.067 0.057c-1.192 1.1-2.792 1.775-4.548 1.775s-3.356-0.675-4.553-1.779l0.005 0.004-51.105-40.817 10.288 64.393c0.13 0.498 0.205 1.070 0.205 1.659 0 2.965-1.895 5.487-4.539 6.423l-0.048 0.015c-5.094 1.944-10.985 3.069-17.14 3.069-1.192 0-2.374-0.042-3.546-0.125l0.157 0.009c-1.014 0.074-2.196 0.116-3.388 0.116-6.154 0-12.046-1.126-17.479-3.182l0.34 0.113c-2.675-0.925-4.562-3.423-4.562-6.361 0-0.617 0.083-1.215 0.239-1.783l-0.011 0.047 10.24-64.393-51.057 40.817c-1.2 1.081-2.797 1.741-4.548 1.741s-3.348-0.661-4.555-1.747l0.006 0.005c-5.261-4.391-9.54-9.765-12.588-15.862l-0.129-0.284c-3.705-5.42-6.405-11.833-7.67-18.748l-0.046-0.303c-0.055-0.337-0.087-0.725-0.087-1.12 0-3.142 2.002-5.817 4.799-6.818l0.051-0.016 61.059-23.814-61.059-23.814c-2.849-1-4.856-3.666-4.856-6.802 0-0.407 0.034-0.806 0.099-1.194l-0.006 0.042c1.297-7.103 3.999-13.407 7.818-18.872l-0.102 0.154c3.297-6.255 7.591-11.537 12.731-15.842l0.081-0.066c1.197-1.046 2.775-1.683 4.501-1.683s3.303 0.638 4.509 1.69l-0.008-0.007 51.057 40.769-10.24-64.393c-0.16-0.546-0.252-1.174-0.252-1.823 0-2.947 1.898-5.451 4.539-6.355l0.047-0.014c5.088-1.884 10.965-2.974 17.097-2.974 1.207 0 2.405 0.042 3.591 0.125l-0.16-0.009c1.026-0.074 2.224-0.116 3.431-0.116 6.132 0 12.009 1.090 17.448 3.087l-0.351-0.113c2.704 0.943 4.61 3.472 4.61 6.445 0 0.621-0.083 1.223-0.239 1.794l0.011-0.048-10.288 64.393 51.105-40.769c1.24-1.025 2.845-1.646 4.596-1.646s3.356 0.622 4.608 1.656l-0.012-0.010c5.218 4.357 9.452 9.702 12.448 15.768l0.126 0.282c3.719 5.424 6.461 11.828 7.806 18.73l0.052 0.321c0.075 0.385 0.118 0.828 0.118 1.281 0 3.109-2.027 5.745-4.832 6.659l-0.050 0.014-60.821 23.814 60.821 23.814c2.824 0.962 4.819 3.592 4.819 6.687 0 0.312-0.020 0.62-0.060 0.922l0.004-0.036zM874.258 481.959c-1.423 7.105-4.161 13.393-7.967 18.884l0.109-0.166c-3.289 6.398-7.532 11.827-12.612 16.334l-0.057 0.050c-1.2 1.103-2.807 1.78-4.572 1.78s-3.373-0.676-4.577-1.784l-51.052-40.813 10.288 64.393c0.13 0.498 0.205 1.070 0.205 1.659 0 2.965-1.895 5.487-4.539 6.423l-0.048 0.015c-6.146 1.874-13.211 2.953-20.528 2.953s-14.381-1.079-21.043-3.087l0.516 0.133c-2.692-0.95-4.587-3.472-4.587-6.438 0-0.589 0.075-1.161 0.216-1.706l-0.010 0.047 10.288-64.393-51.057 40.817c-1.225 1.157-2.882 1.869-4.705 1.869-1.698 0-3.251-0.617-4.449-1.638l0.010 0.008c-5.228-4.406-9.488-9.777-12.539-15.859l-0.13-0.287c-3.728-5.414-6.431-11.831-7.672-18.756l-0.044-0.295c-0.059-0.346-0.093-0.745-0.093-1.152 0-3.135 2.006-5.802 4.805-6.786l0.050-0.015 61.059-23.814-61.059-23.814c-2.85-0.982-4.862-3.641-4.862-6.77 0-0.418 0.036-0.828 0.105-1.227l-0.006 0.043c1.273-7.106 3.978-13.413 7.815-18.867l-0.099 0.149c3.257-6.358 7.558-11.724 12.734-16.082l0.078-0.064c1.197-1.046 2.775-1.683 4.501-1.683s3.303 0.638 4.509 1.69l-0.008-0.007 51.057 40.769-10.288-64.393c-0.145-0.524-0.228-1.126-0.228-1.747 0-2.973 1.905-5.502 4.562-6.431l0.048-0.015c6.151-1.814 13.217-2.858 20.528-2.858s14.377 1.044 21.059 2.99l-0.531-0.133c2.704 0.943 4.61 3.472 4.61 6.445 0 0.621-0.083 1.223-0.239 1.794l0.011-0.048-10.288 64.393 51.057-40.769c1.247-1.028 2.861-1.652 4.62-1.652s3.373 0.624 4.632 1.662l-0.012-0.010c5.218 4.357 9.452 9.702 12.448 15.768l0.126 0.282c3.697 5.43 6.435 11.83 7.804 18.722l0.055 0.329c0.075 0.385 0.118 0.828 0.118 1.281 0 3.109-2.027 5.745-4.832 6.659l-0.050 0.014-60.821 23.814 60.821 23.814c2.824 0.962 4.819 3.592 4.819 6.687 0 0.312-0.020 0.62-0.060 0.922l0.004-0.036z" />
<glyph unicode="&#xe91e;" glyph-name="select" d="M781.098 893.321h-523.907c-100.019 0-180.986-80.967-180.986-180.986v-523.907c0-100.019 80.967-180.986 180.986-180.986h523.907c100.019 0 180.986 80.967 180.986 180.986v523.907c0 100.019-80.967 180.986-180.986 180.986zM885.879 188.428c0-57.153-47.628-104.781-104.781-104.781h-523.907c-57.153 0-104.781 47.628-104.781 104.781v523.907c0 57.153 47.628 104.781 104.781 104.781h523.907c57.153 0 104.781-47.628 104.781-104.781v-523.907zM809.674 564.688c-14.288 14.288-33.34 14.288-47.628 0l-228.614-252.428-19.051-4.763-9.526 4.763-233.377 252.428c-9.526 14.288-28.577 14.288-42.865 0-14.288-9.526-14.288-33.34 0-47.628l233.377-252.428c14.288-19.051 33.34-28.577 57.153-28.577s42.865 9.526 57.153 28.577l233.377 252.428c9.526 14.288 9.526 38.102 0 47.628z" />
<glyph unicode="&#xe91f;" glyph-name="textarea" d="M838.251 740.912h-438.177v119.070h52.391c38.102 0 61.916 23.814 61.916 47.628 0 28.577-23.814 47.628-61.916 47.628h-200.037c-33.34 0-61.916-19.051-61.916-47.628 0-23.814 28.577-47.628 61.916-47.628h52.391v-119.070h-114.307c-100.019 0-180.986-80.967-180.986-180.986v-223.851c0-100.019 80.967-180.986 180.986-180.986h114.307v-119.070h-52.391c-33.34 0-61.916-23.814-61.916-47.628 0-28.577 28.577-47.628 61.916-47.628h200.037c38.102 0 61.916 19.051 61.916 47.628 0 23.814-23.814 47.628-61.916 47.628h-52.391v119.070h619.163v404.837c0 100.019-80.967 180.986-180.986 180.986zM190.512 231.293c-57.153 0-104.781 47.628-104.781 104.781v223.851c0 61.916 47.628 104.781 104.781 104.781h114.307v-433.414h-114.307zM400.074 664.707h438.177c57.153 0 104.781-42.865 104.781-104.781v-142.884l-185.749-185.749h-357.209v433.414z" />
<glyph unicode="&#xe920;" glyph-name="text" d="M838.251 740.912h-442.94v119.070h52.391c38.102 0 66.679 19.051 66.679 47.628 0 23.814-28.577 47.628-66.679 47.628h-200.037c-33.34 0-61.916-23.814-61.916-47.628 0-28.577 28.577-47.628 61.916-47.628h52.391v-119.070h-114.307c-95.256 0-180.986-80.967-180.986-180.986v-228.614c0-100.019 85.73-180.986 180.986-180.986h114.307v-114.307h-52.391c-33.34 0-61.916-23.814-61.916-47.628 0-28.577 28.577-47.628 61.916-47.628h200.037c38.102 0 66.679 19.051 66.679 47.628 0 23.814-28.577 47.628-66.679 47.628h-52.391v114.307h442.94c100.019 0 180.986 80.967 180.986 180.986v228.614c0 100.019-80.967 180.986-180.986 180.986zM185.749 226.53c-57.153 0-104.781 47.628-104.781 104.781v228.614c0 57.153 47.628 104.781 104.781 104.781h114.307v-438.177h-114.307zM943.033 331.312c0-57.153-47.628-104.781-104.781-104.781h-442.94v438.177h442.94c57.153 0 104.781-47.628 104.781-104.781v-228.614z" />
<glyph unicode="&#xe921;" glyph-name="time" d="M518.716 898.56h-19.051c-244.508-0.298-442.641-198.43-442.94-442.911v-19.080c0.298-244.508 198.43-442.641 442.911-442.94h19.080c244.508 0.298 442.641 198.43 442.94 442.911v19.080c-0.298 244.508-198.43 442.641-442.911 442.94h-0.029zM885.45 436.569c-0.217-202.455-164.28-366.518-366.714-366.735h-19.072c-202.455 0.217-366.518 164.28-366.735 366.714v19.072c0.217 202.455 164.28 366.518 366.714 366.735h19.072c202.455-0.217 366.518-164.28 366.735-366.714v-0.021zM536.481 450.381c-3.613 3.473-5.858 8.346-5.858 13.744 0 0.007 0 0.014 0 0.022v-0.001 226.899c0 21.043-17.059 38.102-38.102 38.102s-38.102-17.059-38.102-38.102v0-251.047c0-0.068-0.001-0.148-0.001-0.228 0-10.77 4.43-20.506 11.567-27.484l0.007-0.007 186.082-178.843c6.836-6.573 16.142-10.621 26.393-10.621 0.014 0 0.029 0 0.043 0h0.807c20.714 0.426 37.344 17.318 37.344 38.095 0 10.82-4.51 20.587-11.754 27.523l-0.014 0.013z" />
<glyph unicode="&#xe922;" glyph-name="url" d="M836.203 742.864h-438.701v117.593h53.105c34.578 0 62.631 21.337 62.631 47.628s-28.053 47.628-62.631 47.628h-201.514c-34.768 0-62.583-21.337-62.583-47.628s28.005-47.628 62.583-47.628h53.153v-117.593h-114.307c-99.956 0-180.986-81.030-180.986-180.986v0-227.423c0-99.956 81.030-180.986 180.986-180.986v0h114.307v-117.927h-53.153c-34.578 0-62.583-21.337-62.583-47.628s28.005-47.628 62.583-47.628h201.514c34.578 0 62.631 21.337 62.631 47.628s-28.053 47.628-62.631 47.628h-53.105v117.927h438.701c99.956 0 180.986 81.030 180.986 180.986v0 227.423c0 99.956-81.030 180.986-180.986 180.986v0zM940.985 334.455c0-57.869-46.912-104.781-104.781-104.781v0h-648.359c-57.869 0-104.781 46.912-104.781 104.781v0 227.423c0 57.869 46.912 104.781 104.781 104.781v0h648.359c57.869 0 104.781-46.912 104.781-104.781v0zM366.306 520.109c-1.261 0.554-2.727 0.899-4.266 0.952l-0.020 0.001c-1.81 0-4.191 0-7.144 0s-5.858 0-7.906-0.286c-1.749-0.139-3.368-0.477-4.906-0.994l0.143 0.042c-1.073-0.345-1.968-0.994-2.61-1.844l-0.010-0.013c-0.539-0.819-0.951-1.775-1.18-2.8l-0.011-0.057-39.817-138.121v-1.667l-0.381 1.667-40.246 138.645c-0.27 0.995-0.661 1.866-1.166 2.658l0.023-0.038c-0.595 0.821-1.427 1.438-2.395 1.753l-0.034 0.009c-1.327 0.485-2.865 0.823-4.464 0.949l-0.061 0.004c-1.953 0-4.382 0.286-7.382 0.286s-5.62 0-7.525-0.286c-1.741-0.118-3.363-0.458-4.893-0.992l0.13 0.040c-1.022-0.359-1.869-1.006-2.466-1.842l-0.010-0.015c-0.575-0.812-1.005-1.771-1.229-2.807l-0.009-0.051-37.007-138.121-0.381-1.667-0.381 1.667-40.341 138.121c-0.363 1.092-0.815 2.037-1.366 2.913l0.032-0.055c-0.571 0.852-1.388 1.499-2.348 1.847l-0.033 0.010c-1.398 0.486-3.019 0.825-4.699 0.949l-0.064 0.004c-2.096 0-4.763 0.286-8.383 0.286s-5.287 0-7.239 0c-1.727-0.079-3.355-0.387-4.891-0.894l0.129 0.037c-1.013-0.321-1.869-0.9-2.518-1.659l-0.006-0.007c-0.451-0.714-0.719-1.584-0.719-2.516 0-0.070 0.002-0.14 0.005-0.209v0.010c0.008-1.119 0.146-2.202 0.401-3.239l-0.020 0.096c0.382-1.882 0.826-3.479 1.367-5.030l-0.081 0.267 48.914-159.077c0.36-1.216 0.949-2.267 1.723-3.153l-0.008 0.010c0.899-0.976 2.064-1.693 3.38-2.037l0.049-0.011c1.729-0.522 3.755-0.91 5.841-1.088l0.112-0.008c2.439-0.25 5.271-0.392 8.136-0.392 0.489 0 0.976 0.004 1.463 0.012l-0.073-0.001c3.715 0 6.858 0 9.526 0.286 2.275 0.129 4.407 0.486 6.453 1.051l-0.214-0.050c1.416 0.393 2.635 1.103 3.623 2.051l-0.003-0.003c0.835 0.91 1.45 2.035 1.752 3.283l0.010 0.051 32.577 121.499 0.381 1.667 0.381-1.667 35.149-121.499c0.344-1.213 0.918-2.265 1.677-3.155l-0.010 0.012c0.913-0.955 2.073-1.668 3.377-2.035l0.053-0.013c1.814-0.528 3.94-0.916 6.127-1.088l0.113-0.007c2.542-0.246 5.495-0.387 8.481-0.387 0.367 0 0.734 0.002 1.1 0.006l-0.056-0.001c3.715 0 6.858 0 9.526 0.286 2.13 0.113 4.132 0.471 6.038 1.047l-0.18-0.047c1.306 0.438 2.423 1.14 3.334 2.048v0c0.816 0.92 1.428 2.041 1.75 3.278l0.012 0.056 49.057 158.982c0.619 1.857 1.048 3.429 1.334 4.763 0.199 0.939 0.32 2.023 0.333 3.133v0.010c0.004 0.077 0.007 0.168 0.007 0.259 0 0.868-0.232 1.683-0.638 2.384l0.012-0.023c-0.59 0.695-1.343 1.234-2.202 1.559l-0.037 0.012zM640.167 520.109c-1.261 0.554-2.727 0.899-4.266 0.952l-0.020 0.001c-1.81 0-4.191 0-7.144 0s-5.858 0-7.906-0.286c-1.749-0.139-3.368-0.477-4.906-0.994l0.143 0.042c-1.073-0.345-1.968-0.994-2.61-1.844l-0.010-0.013c-0.539-0.819-0.951-1.775-1.18-2.8l-0.011-0.057-39.817-138.121v-1.667l-0.381 1.667-40.246 138.645c-0.27 0.995-0.661 1.866-1.166 2.658l0.023-0.038c-0.595 0.821-1.427 1.438-2.395 1.753l-0.034 0.009c-1.403 0.507-3.026 0.847-4.713 0.95l-0.050 0.002c-1.953 0-4.382 0.286-7.382 0.286s-5.62 0-7.525-0.286c-1.741-0.118-3.363-0.458-4.893-0.992l0.13 0.040c-1.022-0.359-1.869-1.006-2.466-1.842l-0.010-0.015c-0.575-0.812-1.005-1.771-1.229-2.807l-0.009-0.051-37.007-138.121-0.381-1.667-0.381 1.667-40.341 138.121c-0.363 1.092-0.815 2.037-1.366 2.913l0.032-0.055c-0.571 0.852-1.388 1.499-2.348 1.847l-0.033 0.010c-1.398 0.486-3.019 0.825-4.699 0.949l-0.064 0.004c-2.096 0-4.763 0.286-8.383 0.286s-5.287 0-7.239 0c-1.727-0.079-3.355-0.387-4.891-0.894l0.129 0.037c-1.013-0.321-1.869-0.9-2.518-1.659l-0.006-0.007c-0.451-0.714-0.719-1.584-0.719-2.516 0-0.070 0.002-0.14 0.005-0.209v0.010c0.008-1.119 0.146-2.202 0.401-3.239l-0.020 0.096c0.382-1.882 0.826-3.479 1.367-5.030l-0.081 0.267 48.914-159.077c0.36-1.216 0.949-2.267 1.723-3.153l-0.008 0.010c0.899-0.976 2.064-1.693 3.38-2.037l0.049-0.011c1.729-0.522 3.755-0.91 5.841-1.088l0.112-0.008c2.439-0.25 5.271-0.392 8.136-0.392 0.489 0 0.976 0.004 1.463 0.012l-0.073-0.001c3.715 0 6.858 0 9.526 0.286 2.275 0.129 4.407 0.486 6.453 1.051l-0.214-0.050c1.416 0.393 2.635 1.103 3.623 2.051l-0.003-0.003c0.835 0.91 1.45 2.035 1.752 3.283l0.010 0.051 32.577 121.499 0.381 1.667 0.381-1.667 35.149-121.499c0.344-1.213 0.918-2.265 1.677-3.155l-0.010 0.012c0.913-0.955 2.073-1.668 3.377-2.035l0.053-0.013c1.814-0.528 3.94-0.916 6.127-1.088l0.113-0.007c2.542-0.246 5.495-0.387 8.481-0.387 0.367 0 0.734 0.002 1.1 0.006l-0.056-0.001c3.715 0 6.858 0 9.526 0.286 2.13 0.113 4.132 0.471 6.038 1.047l-0.18-0.047c1.306 0.438 2.423 1.14 3.334 2.048v0c0.816 0.92 1.428 2.041 1.75 3.278l0.012 0.056 49.295 159.077c0.619 1.857 1.048 3.429 1.334 4.763 0.199 0.939 0.32 2.023 0.333 3.133v0.010c0.004 0.077 0.007 0.168 0.007 0.259 0 0.868-0.232 1.683-0.638 2.384l0.012-0.023c-0.598 0.658-1.35 1.165-2.201 1.465l-0.038 0.012zM902.596 521.252c-3.239 0-5.858 0-7.906-0.286-1.749-0.139-3.368-0.477-4.906-0.994l0.143 0.042c-1.073-0.345-1.968-0.994-2.61-1.844l-0.010-0.013c-0.539-0.819-0.951-1.775-1.18-2.8l-0.011-0.057-39.817-138.121v-1.667l-0.381 1.667-40.246 138.454c-0.27 0.995-0.661 1.866-1.166 2.658l0.023-0.038c-0.595 0.821-1.427 1.438-2.395 1.753l-0.034 0.009c-1.327 0.485-2.865 0.823-4.464 0.949l-0.061 0.004c-1.953 0-4.382 0.286-7.382 0.286s-5.62 0-7.525-0.286c-1.741-0.118-3.363-0.458-4.893-0.992l0.13 0.040c-1.022-0.359-1.869-1.006-2.466-1.842l-0.010-0.015c-0.575-0.812-1.005-1.771-1.229-2.807l-0.009-0.051-37.007-138.121-0.381-1.667-0.381 1.667-40.341 138.121c-0.363 1.092-0.815 2.037-1.366 2.913l0.032-0.055c-0.571 0.852-1.388 1.499-2.348 1.847l-0.033 0.010c-1.398 0.486-3.019 0.825-4.699 0.949l-0.064 0.004c-2.096 0-4.763 0.286-8.383 0.286s-5.287 0-7.239 0c-1.727-0.079-3.355-0.387-4.891-0.894l0.129 0.037c-1.013-0.321-1.869-0.9-2.518-1.659l-0.006-0.007c-0.451-0.714-0.719-1.584-0.719-2.516 0-0.070 0.002-0.14 0.005-0.209v0.010c0.008-1.119 0.146-2.202 0.401-3.239l-0.020 0.096c0.382-1.882 0.826-3.479 1.367-5.030l-0.081 0.267 48.914-159.077c0.36-1.216 0.949-2.267 1.723-3.153l-0.008 0.010c0.899-0.976 2.064-1.693 3.38-2.037l0.049-0.011c1.729-0.522 3.755-0.91 5.841-1.088l0.112-0.008c2.439-0.25 5.271-0.392 8.136-0.392 0.489 0 0.976 0.004 1.463 0.012l-0.073-0.001c3.715 0 6.858 0 9.526 0.286 2.275 0.129 4.407 0.486 6.453 1.051l-0.214-0.050c1.416 0.393 2.635 1.103 3.623 2.051l-0.003-0.003c0.835 0.91 1.45 2.035 1.752 3.283l0.010 0.051 32.577 121.499 0.381 1.667 0.381-1.667 35.149-121.499c0.344-1.213 0.918-2.265 1.677-3.155l-0.010 0.012c0.913-0.955 2.073-1.668 3.377-2.035l0.053-0.013c1.814-0.528 3.94-0.916 6.127-1.088l0.113-0.007c2.542-0.246 5.495-0.387 8.481-0.387 0.367 0 0.734 0.002 1.1 0.006l-0.056-0.001c3.715 0 6.858 0 9.526 0.286 2.13 0.113 4.132 0.471 6.038 1.047l-0.18-0.047c1.306 0.438 2.423 1.14 3.334 2.048v0c0.816 0.92 1.428 2.041 1.75 3.278l0.012 0.056 49.295 159.077c0.619 1.857 1.048 3.429 1.334 4.763 0.199 0.939 0.32 2.023 0.333 3.133v0.010c0.004 0.077 0.007 0.168 0.007 0.259 0 0.868-0.232 1.683-0.638 2.384l0.012-0.023c-0.582 0.732-1.336 1.303-2.202 1.654l-0.036 0.013c-1.261 0.554-2.727 0.899-4.266 0.952l-0.020 0.001c-2.048-0.095-4.429 0-7.382 0z" />
<glyph unicode="&#xe923;" glyph-name="week" d="M789.433 899.417v6.144c0 21.043-17.059 38.102-38.102 38.102s-38.102-17.059-38.102-38.102v0-5.953h-410.076v5.953c0 21.043-17.059 38.102-38.102 38.102v0 0c-21.043 0-38.102-17.059-38.102-38.102v0-6.144c-96.728-4.072-173.604-83.476-173.604-180.835 0-0.053 0-0.106 0-0.159v0.008-547.721c0-99.956 81.030-180.986 180.986-180.986v0h547.721c99.956 0 180.986 81.030 180.986 180.986v0 547.721c0 0.045 0 0.098 0 0.151 0 97.36-76.875 176.764-173.237 180.823l-0.367 0.012zM226.947 823.213v-21.337c0-21.043 17.059-38.102 38.102-38.102v0 0c21.043 0 38.102 17.059 38.102 38.102v0 21.528h410.076v-21.623c0-21.043 17.059-38.102 38.102-38.102s38.102 17.059 38.102 38.102v0 21.337c54.595-3.973 97.385-49.235 97.399-104.494v-87.255h-757.284v87.254c0.014 55.261 42.804 100.523 97.058 104.476l0.341 0.020zM782.050 66.119h-547.721c-57.869 0-104.781 46.912-104.781 104.781v0 384.262h757.284v-384.452c-0.108-57.787-46.979-104.591-104.781-104.591 0 0 0 0 0 0v0zM413.982 376.129h117.784c-24.254-26.104-44.070-56.74-57.989-90.432l-0.737-2.013q-21.861-53.010-21.861-97.875h83.92c-0.476 7.43-0.762 12.764-0.762 16.003 0.519 37.39 7.779 72.936 20.614 105.683l-0.706-2.044q19.908 54.153 47.628 86.683v47.628h-182.51z" />
<glyph unicode="&#xe925;" glyph-name="settings" d="M682.667 426.667c0 47.104-19.157 89.856-50.005 120.661s-73.557 50.005-120.661 50.005-89.856-19.157-120.661-50.005-50.005-73.557-50.005-120.661 19.157-89.856 50.005-120.661 73.557-50.005 120.661-50.005 89.856 19.157 120.661 50.005 50.005 73.557 50.005 120.661zM597.333 426.667c0-23.595-9.515-44.843-25.003-60.331s-36.736-25.003-60.331-25.003-44.843 9.515-60.331 25.003-25.003 36.736-25.003 60.331 9.515 44.843 25.003 60.331 36.736 25.003 60.331 25.003 44.843-9.515 60.331-25.003 25.003-36.736 25.003-60.331zM866.773 281.43c1.963 4.48 4.779 8.149 8.192 10.965 4.779 3.925 10.709 6.229 17.195 6.272h3.84c35.328 0 67.413 14.379 90.496 37.504s37.504 55.168 37.504 90.496-14.379 67.413-37.504 90.496-55.168 37.504-90.496 37.504h-6.784c-4.693 0.043-9.173 1.195-13.141 3.243-5.419 2.816-9.813 7.339-12.459 13.312-0.128 1.237-0.171 2.517-0.171 3.797-1.024 2.347-1.707 4.736-2.091 7.168 0.853 14.251 3.285 19.371 7.168 23.339l2.645 2.645c24.96 25.003 37.461 57.856 37.419 90.539s-12.544 65.536-37.589 90.539c-25.003 24.96-57.856 37.461-90.539 37.419s-65.536-12.544-90.453-37.504l-1.963-1.963c-3.541-3.413-7.808-5.803-12.288-7.083-5.973-1.664-12.416-1.365-18.688 1.408-4.309 1.877-7.979 4.693-10.795 8.107-3.925 4.779-6.229 10.709-6.272 17.195v3.84c0 35.328-14.379 67.413-37.504 90.496s-55.168 37.504-90.496 37.504-67.413-14.379-90.496-37.504-37.504-55.168-37.504-90.496v-6.784c-0.043-4.693-1.195-9.173-3.243-13.141-2.816-5.419-7.339-9.813-13.312-12.459-1.237-0.128-2.517-0.171-3.797-0.171-2.347-1.024-4.736-1.707-7.168-2.091-14.293 0.896-19.413 3.328-23.381 7.211l-2.645 2.645c-25.003 24.96-57.813 37.461-90.539 37.461s-65.493-12.544-90.539-37.632c-24.96-25.003-37.461-57.813-37.461-90.539s12.544-65.536 37.504-90.453l2.048-2.005c3.413-3.541 5.803-7.808 7.083-12.288 1.664-5.973 1.365-12.416-1.323-18.517-0.256-0.683-0.555-1.451-0.896-2.219-1.749-4.651-4.608-8.661-8.149-11.733-4.693-4.053-10.667-6.528-16.341-6.656h-3.84c-35.328 0-67.413-14.379-90.496-37.504s-37.504-55.211-37.504-90.539 14.379-67.413 37.504-90.496 55.168-37.504 90.496-37.504h6.784c4.693-0.043 9.173-1.195 13.141-3.243 5.461-2.859 9.941-7.424 12.629-13.696 1.024-2.347 1.707-4.736 2.091-7.168-0.853-14.251-3.285-19.371-7.168-23.339l-2.645-2.645c-24.96-25.003-37.461-57.856-37.419-90.539s12.544-65.536 37.589-90.539c25.003-24.96 57.856-37.461 90.539-37.419s65.536 12.544 90.453 37.504l2.005 2.048c3.541 3.413 7.808 5.803 12.288 7.083 5.973 1.664 12.416 1.365 18.517-1.323 0.683-0.256 1.451-0.555 2.219-0.896 4.651-1.749 8.661-4.608 11.733-8.149 4.053-4.693 6.528-10.667 6.656-16.341v-3.925c0-35.328 14.379-67.413 37.504-90.496s55.168-37.504 90.496-37.504 67.413 14.379 90.496 37.504 37.504 55.168 37.504 90.496v6.784c0.043 4.693 1.195 9.173 3.243 13.141 2.859 5.461 7.424 9.941 13.696 12.629 2.347 1.024 4.736 1.707 7.168 2.091 14.251-0.853 19.371-3.285 23.339-7.168l2.645-2.645c25.003-24.96 57.856-37.461 90.539-37.419s65.536 12.544 90.539 37.589c24.96 25.003 37.461 57.856 37.419 90.539s-12.544 65.536-37.504 90.453l-2.048 2.005c-3.413 3.541-5.803 7.808-7.083 12.288-1.664 5.973-1.365 12.416 1.323 18.517zM784.896 541.782c-0.512 8.576-1.621 12.672-3.243 16.299v-3.413c0-1.835 0.128-3.584 0.341-5.333 0.896-2.56 1.835-5.077 2.901-7.552 0.171-3.84 0.213-3.883 0.213-3.925 10.624-24.789 29.184-43.947 51.541-55.595 15.829-8.235 33.493-12.715 51.669-12.928h7.68c11.776 0 22.4-4.736 30.165-12.501s12.501-18.389 12.501-30.165-4.736-22.4-12.501-30.165-18.389-12.501-30.165-12.501h-3.84c-27.179-0.128-52.053-9.728-71.467-25.728-13.781-11.349-24.789-25.899-32-42.368-10.965-24.832-12.288-51.627-5.419-76.032 5.077-18.048 14.549-34.731 27.819-48.469l3.072-3.115c8.363-8.363 12.544-19.2 12.544-30.165s-4.139-21.845-12.459-30.165c-8.405-8.405-19.243-12.587-30.251-12.587s-21.845 4.139-30.165 12.459l-2.603 2.603c-19.755 19.328-44.373 29.952-69.632 32.085-18.645 1.579-37.632-1.451-55.168-9.045-24.661-10.581-43.819-29.141-55.467-51.456-8.235-15.829-12.715-33.493-12.928-51.669v-7.723c0-11.776-4.736-22.4-12.501-30.165s-18.347-12.459-30.123-12.459-22.4 4.736-30.165 12.501-12.501 18.389-12.501 30.165v3.84c-0.64 28.16-10.88 52.992-27.477 72.192-12.117 13.995-27.563 24.96-45.141 31.744-24.533 10.539-50.901 11.691-74.923 4.949-18.048-5.077-34.731-14.549-48.469-27.819l-3.115-3.072c-8.363-8.363-19.2-12.544-30.165-12.544s-21.845 4.139-30.165 12.459c-8.405 8.405-12.587 19.243-12.587 30.251s4.139 21.845 12.459 30.165l2.603 2.603c19.328 19.755 29.952 44.373 32.085 69.632 1.579 18.645-1.451 37.632-9.045 55.168-10.581 24.661-29.141 43.819-51.456 55.467-15.829 8.235-33.493 12.715-51.669 12.928l-7.68-0.043c-11.776 0-22.4 4.736-30.165 12.501s-12.501 18.389-12.501 30.165 4.736 22.4 12.501 30.165 18.389 12.501 30.165 12.501h3.84c28.16 0.64 52.992 10.88 72.192 27.477 13.995 12.117 24.96 27.563 31.744 45.141 10.539 24.533 11.691 50.901 4.949 74.923-5.077 18.048-14.549 34.731-27.819 48.469l-3.115 3.115c-8.363 8.363-12.544 19.2-12.544 30.165s4.139 21.845 12.459 30.165c8.405 8.405 19.243 12.587 30.251 12.587s21.845-4.139 30.165-12.459l2.603-2.603c19.755-19.328 44.373-29.952 69.632-32.085 15.787-1.365 31.787 0.597 46.976 5.845 4.096 0.512 7.936 1.536 11.349 3.072-1.323-0.043-2.603-0.128-3.797-0.171-8.576-0.512-12.672-1.621-16.299-3.243h3.413c1.835 0 3.584 0.128 5.333 0.341 2.56 0.896 5.077 1.835 7.552 2.901 3.84 0.171 3.883 0.213 3.925 0.213 24.789 10.624 43.947 29.184 55.595 51.541 8.235 15.787 12.715 33.493 12.928 51.627v7.723c0 11.776 4.736 22.4 12.501 30.165s18.389 12.501 30.165 12.501 22.4-4.736 30.165-12.501 12.501-18.389 12.501-30.165v-3.84c0.128-27.179 9.728-52.053 25.728-71.467 11.349-13.781 25.899-24.789 42.496-32.043 24.661-10.88 51.456-12.203 75.861-5.333 18.048 5.077 34.731 14.549 48.469 27.819l3.115 3.072c8.363 8.363 19.2 12.544 30.165 12.544s21.845-4.139 30.165-12.459c8.405-8.405 12.587-19.243 12.587-30.251s-4.139-21.845-12.459-30.165l-2.603-2.603c-19.328-19.755-29.952-44.373-32.085-69.632-1.365-15.787 0.597-31.787 5.845-46.976 0.512-4.053 1.579-7.893 3.072-11.349-0.043 1.365-0.085 2.645-0.171 3.797z" />
<glyph unicode="&#xe926;" glyph-name="information-outline" d="M150.016 98.816c-96.436 93.233-156.308 223.762-156.308 368.276 0 282.77 229.23 512 512 512 144.514 0 275.043-59.872 368.137-156.164l0.138-0.144c88.925-91.979 143.724-217.436 143.724-355.692 0-282.77-229.23-512-512-512-138.256 0-263.713 54.799-355.836 143.863l0.144-0.138zM801.792 171.008c74.164 74.164 120.036 176.621 120.036 289.792 0 226.342-183.486 409.828-409.828 409.828-113.171 0-215.628-45.872-289.792-120.036v0c-74.164-74.164-120.036-176.621-120.036-289.792 0-226.342 183.486-409.828 409.828-409.828 113.171 0 215.628 45.872 289.792 120.036v0zM460.8 409.6v102.4h102.4v-307.2h-102.4v204.8zM460.8 716.8h102.4v-102.4h-102.4v102.4z" />
<glyph unicode="&#xe927;" glyph-name="params" d="M256 767.328v96.672c0 52.928-43.072 96-96 96s-96-43.072-96-96v-96.672c-38.656-29.28-64-75.136-64-127.328s25.344-98.048 64-127.264v-480.736c0-52.928 43.072-96 96-96s96 43.072 96 96v480.736c38.656 29.184 64 75.072 64 127.264s-25.344 98.048-64 127.328zM128 864c0 17.696 14.304 32 32 32s32-14.304 32-32v-67.2c-10.336 2.080-21.024 3.2-32 3.2s-21.664-1.12-32-3.2v67.2zM192 32c0-17.696-14.304-32-32-32s-32 14.304-32 32v451.264c10.336-2.144 21.024-3.264 32-3.264s21.664 1.12 32 3.264v-451.264zM251.68 613.12c-0.512-1.696-0.96-3.36-1.568-5.056-3.040-8.448-6.944-16.448-12.096-23.552-0.128-0.192-0.32-0.32-0.448-0.512-5.568-7.616-12.192-14.368-19.712-20.064-0.128-0.128-0.224-0.192-0.32-0.256-7.712-5.824-16.32-10.496-25.568-13.76-10.016-3.616-20.672-5.92-31.968-5.92s-21.952 2.304-32 5.952c-9.248 3.264-17.856 7.936-25.568 13.76-0.096 0.064-0.192 0.128-0.32 0.256-7.52 5.696-14.144 12.448-19.712 20.064-0.128 0.192-0.32 0.32-0.448 0.512-5.152 7.136-9.056 15.136-12.096 23.552-0.608 1.696-1.056 3.36-1.568 5.056-2.528 8.544-4.288 17.472-4.288 26.848 0 9.44 1.76 18.368 4.32 26.944 0.512 1.696 0.96 3.36 1.568 4.992 3.008 8.448 6.912 16.448 12.096 23.616 0.128 0.192 0.32 0.32 0.448 0.512 5.568 7.552 12.192 14.368 19.712 20.064 0.128 0.064 0.224 0.192 0.32 0.256 7.68 5.728 16.288 10.432 25.536 13.728 10.048 3.584 20.704 5.888 32 5.888s21.952-2.304 32-5.888c9.248-3.328 17.856-8 25.568-13.76 0.096-0.064 0.192-0.192 0.32-0.256 7.52-5.696 14.144-12.512 19.712-20.064 0.128-0.192 0.32-0.32 0.448-0.512 5.152-7.136 9.056-15.136 12.064-23.584 0.608-1.632 1.088-3.296 1.568-4.992 2.56-8.576 4.32-17.504 4.32-26.944 0-9.376-1.76-18.304-4.32-26.88zM960 767.328v96.672c0 52.928-43.072 96-96 96s-96-43.072-96-96v-96.672c-38.688-29.28-64-75.136-64-127.328s25.312-98.048 64-127.264v-480.736c0-52.928 43.072-96 96-96s96 43.072 96 96v480.736c38.624 29.184 64 75.072 64 127.264s-25.376 98.048-64 127.328zM832 864c0 17.696 14.304 32 32 32s32-14.304 32-32v-67.2c-10.368 2.080-21.056 3.2-32 3.2-11.008 0-21.696-1.12-32-3.2v67.2zM896 32c0-17.696-14.304-32-32-32s-32 14.304-32 32v451.264c10.304-2.144 20.992-3.264 32-3.264 10.944 0 21.632 1.12 32 3.264v-451.264zM955.68 613.12c-0.512-1.696-0.992-3.36-1.568-5.056-3.072-8.448-6.944-16.448-12.128-23.552-0.128-0.192-0.32-0.32-0.448-0.512-5.568-7.616-12.192-14.368-19.68-20.064-0.128-0.128-0.256-0.192-0.32-0.256-7.744-5.824-16.32-10.496-25.568-13.76-10.016-3.616-20.704-5.92-31.968-5.92-11.328 0-21.952 2.304-32 5.952-9.248 3.264-17.888 7.936-25.568 13.76-0.128 0.064-0.192 0.128-0.32 0.256-7.552 5.696-14.176 12.448-19.744 20.064-0.128 0.192-0.32 0.32-0.448 0.512-5.12 7.136-9.056 15.136-12.064 23.552-0.64 1.696-1.056 3.36-1.568 5.056-2.528 8.544-4.288 17.472-4.288 26.848 0 9.44 1.76 18.368 4.32 26.944 0.512 1.696 0.928 3.36 1.568 4.992 3.008 8.448 6.944 16.448 12.064 23.616 0.128 0.192 0.32 0.32 0.448 0.512 5.568 7.552 12.192 14.368 19.744 20.064 0.128 0.064 0.192 0.192 0.32 0.256 7.68 5.76 16.32 10.432 25.568 13.76 10.016 3.552 20.64 5.856 31.968 5.856 11.264 0 21.952-2.304 32-5.888 9.248-3.328 17.824-8 25.568-13.76 0.064-0.064 0.192-0.192 0.32-0.256 7.488-5.696 14.112-12.512 19.68-20.064 0.128-0.192 0.32-0.32 0.448-0.512 5.184-7.2 9.056-15.2 12.128-23.616 0.576-1.632 1.056-3.328 1.568-4.992 2.528-8.544 4.288-17.472 4.288-26.912 0-9.376-1.76-18.304-4.32-26.88zM608 383.328v480.672c0 52.928-43.072 96-96 96s-96-43.072-96-96v-480.672c-38.656-29.248-64-75.136-64-127.328s25.344-98.048 64-127.264v-96.736c0-52.928 43.072-96 96-96s96 43.072 96 96v96.736c38.624 29.184 64 75.072 64 127.264s-25.376 98.048-64 127.328zM480 864c0 17.696 14.304 32 32 32s32-14.304 32-32v-451.2c-10.368 2.048-21.056 3.2-32 3.2-10.976 0-21.664-1.12-32-3.2v451.2zM544 32c0-17.696-14.304-32-32-32s-32 14.304-32 32v67.264c10.336-2.144 21.024-3.264 32-3.264 10.944 0 21.632 1.12 32 3.264v-67.264zM603.68 229.12c-0.512-1.696-0.992-3.36-1.568-5.056-3.072-8.448-6.944-16.448-12.128-23.552-0.128-0.192-0.32-0.32-0.448-0.512-5.568-7.616-12.192-14.368-19.68-20.064-0.128-0.128-0.256-0.192-0.32-0.256-7.744-5.824-16.32-10.496-25.568-13.76-10.016-3.616-20.704-5.92-31.968-5.92-11.296 0-21.952 2.304-32 5.952-9.248 3.264-17.856 7.936-25.568 13.76-0.096 0.064-0.192 0.128-0.32 0.256-7.52 5.696-14.144 12.448-19.712 20.064-0.128 0.192-0.32 0.32-0.448 0.512-5.152 7.136-9.056 15.136-12.096 23.552-0.608 1.696-1.056 3.36-1.568 5.056-2.528 8.544-4.288 17.472-4.288 26.848 0 9.44 1.76 18.368 4.32 26.944 0.512 1.696 0.96 3.36 1.568 4.992 3.040 8.448 6.944 16.448 12.096 23.616 0.128 0.192 0.32 0.32 0.448 0.512 5.568 7.552 12.192 14.368 19.712 20.064 0.128 0.064 0.224 0.192 0.32 0.256 7.712 5.76 16.32 10.432 25.568 13.76 10.016 3.552 20.672 5.856 31.968 5.856 11.264 0 21.952-2.304 32-5.888 9.248-3.328 17.824-8 25.568-13.76 0.064-0.064 0.192-0.192 0.32-0.256 7.488-5.696 14.112-12.512 19.68-20.064 0.128-0.192 0.32-0.32 0.448-0.512 5.184-7.2 9.056-15.2 12.128-23.616 0.576-1.632 1.056-3.328 1.568-4.992 2.528-8.544 4.288-17.472 4.288-26.912 0-9.376-1.76-18.304-4.32-26.88z" />
<glyph unicode="&#xe928;" glyph-name="loop" d="M889.68 793.68c-93.608 102.216-228.154 166.32-377.68 166.32-282.77 0-512-229.23-512-512h96c0 229.75 186.25 416 416 416 123.020 0 233.542-53.418 309.696-138.306l-149.696-149.694h352v352l-134.32-134.32zM928 448c0-229.75-186.25-416-416-416-123.020 0-233.542 53.418-309.694 138.306l149.694 149.694h-352v-352l134.32 134.32c93.608-102.216 228.154-166.32 377.68-166.32 282.77 0 512 229.23 512 512h-96z" />
<glyph unicode="&#xe929;" glyph-name="one" horiz-adv-x="1109" d="M928.744 560.455c-15.876 18.522-42.336 21.168-63.504 7.938s-23.814-44.982-7.938-63.504c8.488-12.272 16.309-22.616 24.514-32.633l-0.7 0.881 18.522-21.168 42.336-52.92c8.662-11.146 21.995-18.307 37.009-18.522h0.035c12.847 0.411 24.197 6.484 31.688 15.794l0.064 0.082 87.318 108.486c6.706 8.144 10.772 18.681 10.772 30.167 0 1.489-0.068 2.963-0.202 4.417l0.014-0.187c-2.172 12.109-8.933 22.335-18.381 29.011l-0.141 0.095c-21.168 15.876-47.628 13.23-63.504-7.938l-2.646-2.646v60.858c0 29.106 0 58.212-5.292 89.964-22.543 143.243-145.098 251.497-292.937 251.497-3.061 0-6.112-0.046-9.151-0.139l0.445 0.011h-336.041l-116.424-2.646c-71.442-7.938-137.592-42.336-187.866-95.256-47.582-52.014-76.734-121.58-76.734-197.956 0-0.174 0-0.347 0-0.521v0.027-404.837c0-23.814 0-47.628 5.292-71.442 23.814-148.176 148.176-251.37 298.997-251.37h359.855c37.044 0 79.38 0 116.424 7.938 139.171 25.938 243.165 146.315 243.431 291.031v0.029c0 26.46-18.522 47.628-44.982 47.628s-47.628-21.168-47.628-47.628c-1.493-114.302-94.501-206.388-209.017-206.388-0.006 0-0.012 0-0.018 0h-412.774c-13.249 0.181-26.083 1.137-38.686 2.826l1.642-0.18c-100.548 10.584-179.928 100.548-179.928 201.096v428.651c0 113.778 92.61 206.388 206.388 206.388h423.359c116.424 0 209.034-92.61 209.034-209.034v-100.548zM415.421 250.873c0-23.814 21.168-39.69 47.628-39.69h161.406c15.876 0 26.46 5.292 37.044 13.23 6.591 7.067 10.638 16.582 10.638 27.042 0 0.726-0.019 1.448-0.058 2.164l0.004-0.1c0 23.814-18.522 39.69-47.628 39.69h-39.69v365.147c0 18.522-7.938 34.398-21.168 42.336s-29.106 7.938-47.628-2.646l-79.38-47.628c-21.168-15.876-26.46-37.044-15.876-58.212 13.23-21.168 37.044-26.46 60.858-13.23l18.522 10.584v-296.351h-37.044c-15.876 0-29.106-5.292-37.044-13.23-6.591-7.067-10.638-16.582-10.638-27.042 0-0.726 0.019-1.448 0.058-2.164l-0.004 0.1z" />
<glyph unicode="&#xe92a;" glyph-name="block" d="M0 460.8c0 282.77 229.23 512 512 512s512-229.23 512-512v0c0-282.77-229.23-512-512-512s-512 229.23-512 512v0zM835.584 711.68l-574.976-573.952c68.628-53.726 156.18-86.154 251.306-86.154 226.216 0 409.6 183.384 409.6 409.6 0 94.998-32.34 182.442-86.612 251.924l0.682-0.906zM763.392 784.384c-68.81 54.208-156.742 86.945-252.321 86.945-226.216 0-409.6-183.384-409.6-409.6 0-95.578 32.737-183.511 87.609-253.196l-0.664 0.875 574.976 574.976z" />
<glyph unicode="&#xe92b;" glyph-name="layout" d="M213.333 853.334c-35.328 0-67.413-14.379-90.496-37.504s-37.504-55.168-37.504-90.496v-597.333c0-35.328 14.379-67.413 37.504-90.496s55.168-37.504 90.496-37.504h597.333c35.328 0 67.413 14.379 90.496 37.504s37.504 55.168 37.504 90.496v597.333c0 35.328-14.379 67.413-37.504 90.496s-55.168 37.504-90.496 37.504zM853.333 597.334h-682.667v128c0 11.776 4.736 22.4 12.501 30.165s18.389 12.501 30.165 12.501h597.333c11.776 0 22.4-4.736 30.165-12.501s12.501-18.389 12.501-30.165zM341.333 512v-426.667h-128c-11.776 0-22.4 4.736-30.165 12.501s-12.501 18.389-12.501 30.165v384zM426.667 85.334v426.667h426.667v-384c0-11.776-4.736-22.4-12.501-30.165s-18.389-12.501-30.165-12.501z" />
<glyph unicode="&#xe92c;" glyph-name="copy" d="M640 704v256h-448l-192-192v-576h384v-256h640v768h-384zM192 869.49v-101.49h-101.49l101.49 101.49zM64 256v448h192v192h320v-192l-192-192v-256h-320zM576 613.49v-101.49h-101.49l101.49 101.49zM960 0h-512v448h192v192h320v-640z" />
<glyph unicode="&#xe92d;" glyph-name="lock" d="M213.333 426.667h597.333c11.776 0 22.4-4.736 30.165-12.501s12.501-18.389 12.501-30.165v-298.667c0-11.776-4.736-22.4-12.501-30.165s-18.389-12.501-30.165-12.501h-597.333c-11.776 0-22.4 4.736-30.165 12.501s-12.501 18.389-12.501 30.165v298.667c0 11.776 4.736 22.4 12.501 30.165s18.389 12.501 30.165 12.501zM768 512v128c0 70.699-28.715 134.741-74.965 181.035s-110.336 74.965-181.035 74.965-134.741-28.715-181.035-74.965-74.965-110.336-74.965-181.035v-128h-42.667c-35.328 0-67.413-14.379-90.496-37.504s-37.504-55.168-37.504-90.496v-298.667c0-35.328 14.379-67.413 37.504-90.496s55.168-37.504 90.496-37.504h597.333c35.328 0 67.413 14.379 90.496 37.504s37.504 55.168 37.504 90.496v298.667c0 35.328-14.379 67.413-37.504 90.496s-55.168 37.504-90.496 37.504zM341.333 512v128c0 47.147 19.072 89.728 50.005 120.661s73.515 50.005 120.661 50.005 89.728-19.072 120.661-50.005 50.005-73.515 50.005-120.661v-128z" />
<glyph unicode="&#xe92e;" glyph-name="stack" d="M1021.568 369.44l-128.064 480.192c-7.744 27.296-33.056 46.368-61.504 46.368h-640c-28.48 0-53.76-19.072-61.504-46.368l-128.064-480.192c-1.632-5.824-2.432-11.68-2.432-17.44v-224c0-70.688 57.312-128 128-128h768c70.688 0 128 57.312 128 128v224c0 5.76-0.8 11.616-2.432 17.44zM960 128c0-35.264-28.736-64-64-64h-768c-35.296 0-64 28.736-64 64v224l128.032 480.032h639.904l128.064-480.032v-224zM759.744 768h-495.488c-14.496 0-27.2-9.76-30.944-23.776l-110.24-384c-2.528-9.632-0.512-19.872 5.568-27.744s15.424-12.48 25.344-12.48h146.176l46.304-92.64c10.88-21.664 33.024-35.36 57.28-35.36h216.512c24.256 0 46.368 13.696 57.248 35.36l46.304 92.64h146.176c9.952 0 19.328 4.64 25.376 12.512s8.064 18.112 5.568 27.744l-110.24 384c-3.744 14.016-16.448 23.744-30.944 23.744zM776.992 384h-53.184c-24.384 0-46.304-13.504-57.248-35.36l-46.304-92.64h-216.512l-46.304 92.64c-10.944 21.856-32.864 35.36-57.248 35.36h-129.504l93.568 352h495.488l93.568-352h-76.32z" />
<glyph unicode="&#xe92f;" glyph-name="r-block" horiz-adv-x="1195" d="M1165.93 569.851c0 44.871-36.367 81.226-81.226 81.226v0h-974.725c-44.871 0-81.226-36.367-81.226-81.226v0-243.68c-0.005-0.306-0.007-0.667-0.007-1.029 0-38.979 28.327-71.344 65.536-77.595l0.464-0.064 50.767-2.538h45.69v-203.067h-38.076c-25.384 0-43.163-17.77-43.163-40.613s17.77-40.613 43.163-40.613h157.377c25.384 0 43.163 17.77 43.163 40.613s-17.77 40.613-43.163 40.613h-38.076v203.067h649.816v-203.067h-38.076c-25.384 0-43.163-17.77-43.163-40.613s17.77-40.613 43.163-40.613h157.377c25.384 0 43.163 17.77 43.163 40.613s-17.77 40.613-43.163 40.613h-38.076v203.067h81.226c44.871 0 81.226 36.367 81.226 81.226v0 243.68zM109.978 349.005v220.837h220.837zM412.042 326.149h-203.067l236.066 236.066c2.538 2.538 7.615 7.615 12.692 7.615h203.067c-2.432-2.698-4.917-5.183-7.526-7.54l-0.098-0.081-228.451-228.451c-2.538-5.077-7.615-7.615-12.692-7.615zM749.642 333.774c-3.941-4.087-9.201-6.869-15.104-7.602l-0.125-0.013h-200.525l236.066 236.066c2.538 2.538 7.615 7.615 12.692 7.615h197.99c0.769 0.039 1.646 0.064 2.538 0.064s1.781-0.037 2.66-0.069l-0.124 0.005-236.066-236.066zM1084.703 326.149h-220.837l220.837 220.837zM881.636 691.68c66.746 0.717 120.577 54.983 120.577 121.851 0 67.295-54.554 121.851-121.851 121.851-0.447 0-0.891-0.003-1.337-0.008l0.068 0.001c-63.46 0-119.301-55.837-119.301-121.851 0-67.291 54.551-121.851 121.851-121.851v0zM881.636 854.135c22.429 0 40.613-18.184 40.613-40.613s-18.184-40.613-40.613-40.613c-22.429 0-40.613 18.184-40.613 40.613v0c0 22.429 18.184 40.613 40.613 40.613v0zM313.047 691.68c67.291 0 121.851 54.551 121.851 121.851v0c0.004 0.377 0.007 0.83 0.007 1.268 0 67.295-54.554 121.851-121.851 121.851-66.847 0-121.122-53.838-121.851-120.509l-0.001-0.068c-0.018-0.769-0.037-1.646-0.037-2.538 0-67.291 54.551-121.851 121.851-121.851 0.010 0 0.020 0 0.037 0h-0.002zM313.047 854.135c22.429 0 40.613-18.184 40.613-40.613s-18.184-40.613-40.613-40.613c-22.429 0-40.613 18.184-40.613 40.613v0c0 22.429 18.184 40.613 40.613 40.613v0z" />
<glyph unicode="&#xe930;" glyph-name="dots-three-horizontal" d="M512.051 573.44c-62.208 0-112.691-50.432-112.691-112.64s50.483-112.64 112.691-112.64c62.208 0 112.589 50.432 112.589 112.64s-50.381 112.64-112.589 112.64zM153.651 573.44c-62.208 0-112.691-50.432-112.691-112.64s50.483-112.64 112.691-112.64c62.208 0 112.589 50.483 112.589 112.64s-50.381 112.64-112.589 112.64zM870.451 573.44c-62.208 0-112.691-50.432-112.691-112.64s50.483-112.64 112.691-112.64c62.208 0 112.589 50.432 112.589 112.64s-50.381 112.64-112.589 112.64z" />
<glyph unicode="&#xe931;" glyph-name="tablet_android" d="M822 128.667v682h-620v-682h620zM598 0.667v42h-172v-42h172zM768 938.667q52 0 90-38t38-90v-768q0-52-38-90t-90-38h-512q-52 0-90 38t-38 90v768q0 52 38 90t90 38h512z" />
<glyph unicode="&#xe932;" glyph-name="phone_android" d="M736 170.667v598h-448v-598h448zM598 42.667v42h-172v-42h172zM682 896.667q52 0 90-38t38-90v-684q0-52-38-90t-90-38h-340q-52 0-90 38t-38 90v684q0 52 38 90t90 38h340z" />
<glyph unicode="&#xe933;" glyph-name="laptop_mac" d="M512 128.667q18 0 30 12t12 30-12 30-30 12-30-12-12-30 12-30 30-12zM170 724.667v-468h684v468h-684zM854 170.667h170q0-34-26-60t-60-26h-852q-34 0-60 26t-26 60h170q-34 0-59 26t-25 60v468q0 34 25 60t59 26h684q34 0 59-26t25-60v-468q0-34-25-60t-59-26z" />
<glyph unicode="&#xe934;" glyph-name="recaptcha" d="M871.591 644.227l0.953 180.986-79.539-80.491c-71.995 67.453-169.087 108.882-275.855 108.882-34.295 0-67.591-4.274-99.385-12.319l2.79 0.598v2.858l-214.326 1.429 71.442-71.442c-100.909-74.511-165.632-193.002-165.632-326.61 0-37.134 5-73.101 14.363-107.263l-0.664 2.841-19.051-200.037 80.967 68.584c73.894-107.335 196.087-176.801 334.504-176.801 223.585 0 404.837 181.252 404.837 404.837 0 75.345-20.583 145.882-56.432 206.296l1.027-1.87zM517.239 119.367c-0.024 0-0.051 0-0.079 0-111.684 0-210.357 55.712-269.741 140.861l-0.706 1.070 91.446 77.157-135.263 11.907c-9.462 29.268-14.918 62.941-14.918 97.889 0 112.764 56.794 212.262 143.338 271.452l1.128 0.728 88.112-87.635v130.024c28.872 9.196 62.081 14.496 96.528 14.496 85.747 0 163.823-32.84 222.339-86.628l-0.236 0.214-80.015-80.015h143.836c27.172-46.792 43.208-102.967 43.208-162.888 0-181.499-147.134-328.633-328.633-328.633-0.121 0-0.241 0-0.362 0h0.019z" />
<glyph unicode="&#xe935;" glyph-name="file_download" d="M214 170.667h596v-86h-596v86zM810 554.667l-298-298-298 298h170v256h256v-256h170z" />
<glyph unicode="&#xe936;" glyph-name="clear" d="M810 664.667l-238-238 238-238-60-60-238 238-238-238-60 60 238 238-238 238 60 60 238-238 238 238z" />
<glyph unicode="&#xe938;" glyph-name="move1" d="M469.333 750.336v-281.003h-281.003l55.168 55.168c16.683 16.683 16.683 43.691 0 60.331s-43.691 16.683-60.331 0l-128-128c-7.723-7.723-12.501-18.389-12.501-30.165 0-5.803 1.152-11.307 3.243-16.341s5.163-9.728 9.259-13.824l128-128c16.683-16.683 43.691-16.683 60.331 0s16.683 43.691 0 60.331l-55.168 55.168h281.003v-281.003l-55.168 55.168c-16.683 16.683-43.691 16.683-60.331 0s-16.683-43.691 0-60.331l128-128c4.096-4.096 8.789-7.168 13.824-9.259s10.539-3.243 16.341-3.243c5.547 0 11.136 1.067 16.341 3.243 5.035 2.091 9.728 5.163 13.824 9.259l128 128c16.683 16.683 16.683 43.691 0 60.331s-43.691 16.683-60.331 0l-55.168-55.168v281.003h281.003l-55.168-55.168c-16.683-16.683-16.683-43.691 0-60.331s43.691-16.683 60.331 0l128 128c4.096 4.096 7.168 8.789 9.259 13.824 6.4 15.445 3.328 33.92-9.259 46.507l-128 128c-16.683 16.683-43.691 16.683-60.331 0s-16.683-43.691 0-60.331l55.168-55.168h-281.003v281.003l55.168-55.168c16.683-16.683 43.691-16.683 60.331 0s16.683 43.691 0 60.331l-128 128c-3.925 3.925-8.619 7.083-13.824 9.259-10.453 4.309-22.229 4.309-32.683 0-5.035-2.091-9.728-5.163-13.824-9.259l-128-128c-16.683-16.683-16.683-43.691 0-60.331s43.691-16.683 60.331 0z" />
<glyph unicode="" glyph-name="move1" d="M469.333 750.336v-281.003h-281.003l55.168 55.168c16.683 16.683 16.683 43.691 0 60.331s-43.691 16.683-60.331 0l-128-128c-7.723-7.723-12.501-18.389-12.501-30.165 0-5.803 1.152-11.307 3.243-16.341s5.163-9.728 9.259-13.824l128-128c16.683-16.683 43.691-16.683 60.331 0s16.683 43.691 0 60.331l-55.168 55.168h281.003v-281.003l-55.168 55.168c-16.683 16.683-43.691 16.683-60.331 0s-16.683-43.691 0-60.331l128-128c4.096-4.096 8.789-7.168 13.824-9.259s10.539-3.243 16.341-3.243c5.547 0 11.136 1.067 16.341 3.243 5.035 2.091 9.728 5.163 13.824 9.259l128 128c16.683 16.683 16.683 43.691 0 60.331s-43.691 16.683-60.331 0l-55.168-55.168v281.003h281.003l-55.168-55.168c-16.683-16.683-16.683-43.691 0-60.331s43.691-16.683 60.331 0l128 128c4.096 4.096 7.168 8.789 9.259 13.824 6.4 15.445 3.328 33.92-9.259 46.507l-128 128c-16.683 16.683-43.691 16.683-60.331 0s-16.683-43.691 0-60.331l55.168-55.168h-281.003v281.003l55.168-55.168c16.683-16.683 43.691-16.683 60.331 0s16.683 43.691 0 60.331l-128 128c-3.925 3.925-8.619 7.083-13.824 9.259-10.453 4.309-22.229 4.309-32.683 0-5.035-2.091-9.728-5.163-13.824-9.259l-128-128c-16.683-16.683-16.683-43.691 0-60.331s43.691-16.683 60.331 0z" />
<glyph unicode="duplicate" glyph-name="copy" d="M640 704v256h-448l-192-192v-576h384v-256h640v768h-384zM192 869.49v-101.49h-101.49l101.49 101.49zM64 256v448h192v192h320v-192l-192-192v-256h-320zM576 613.49v-101.49h-101.49l101.49 101.49zM960 0h-512v448h192v192h320v-640z" />
<glyph unicode="copy" glyph-name="copy" d="M640 704v256h-448l-192-192v-576h384v-256h640v768h-384zM192 869.49v-101.49h-101.49l101.49 101.49zM64 256v448h192v192h320v-192l-192-192v-256h-320zM576 613.49v-101.49h-101.49l101.49 101.49zM960 0h-512v448h192v192h320v-640z" />
</font>
</defs>
</svg>
